<?xml version="1.0" standalone="no"?>
<!DOCTYPE svg PUBLIC "-//W3C//DTD SVG 1.1//EN" "http://www.w3.org/Graphics/SVG/1.1/DTD/svg11.dtd" >
<svg xmlns="http://www.w3.org/2000/svg" xmlns:xlink="http://www.w3.org/1999/xlink" version="1.1">
<metadata>
Created by FontForge 20170731 at Wed Dec 11 03:50:23 2013
 By Aleksey,,,
Copyright (c) 2012 by Vyacheslav Kirilenko, Gayane Bagdasaryan. All rights reserved.
</metadata>
<defs>
<font id="Geometria-Medium" horiz-adv-x="644" >
  <font-face 
    font-family="Geometria"
    font-weight="500"
    font-stretch="normal"
    units-per-em="1000"
    panose-1="2 11 6 3 2 2 4 2 2 4"
    ascent="777"
    descent="-223"
    x-height="491"
    cap-height="700"
    bbox="-453 -251 1431 932"
    underline-thickness="50"
    underline-position="-250"
    unicode-range="U+0020-FB04"
  />
<missing-glyph horiz-adv-x="727" 
d="M555 0h-471v700h471v-700zM168 627v-554h303v554h-303z" />
    <glyph glyph-name="ij" unicode="ij" horiz-adv-x="559" 
d="M194 0h-108v491h108v-491zM140 579q-29 0 -48.5 19.5t-19.5 48.5t19.5 49t48.5 20q28 0 47.5 -20t19.5 -49t-19.5 -48.5t-47.5 -19.5zM310 -205q-63 0 -98 20v94q32 -19 72 -19q81 0 81 87v514h108v-526q0 -82 -43.5 -126t-119.5 -44zM466 598q-20 -19 -48 -19t-48 19
q-20 20 -20 48.5t19 49.5q20 20 49 20t48 -20q20 -20 20 -49t-20 -49z" />
    <glyph glyph-name="f_f" unicode="ff" horiz-adv-x="744" 
d="M223 396v-396h-108v396h-92v95h92v64q0 71 40 113t114 42q64 0 115 -21v-91q-47 18 -85 18q-76 0 -76 -80v-45h227v64q0 71 40 113t114 42q64 0 115 -21v-91q-47 18 -85 18q-76 0 -76 -80v-45h161v-95h-161v-396h-108v396h-227z" />
    <glyph glyph-name="fi" unicode="fi" 
d="M223 491h335v-491h-108v396h-227v-396h-108v396h-92v95h92v64q0 71 40 113t114 42q64 0 115 -21v-91q-47 18 -85 18q-76 0 -76 -80v-45zM504 579q-29 0 -48.5 19.5t-19.5 48.5t19.5 49t48.5 20q28 0 47.5 -20t19.5 -49t-19.5 -48.5t-47.5 -19.5z" />
    <glyph glyph-name="fl" unicode="fl" horiz-adv-x="680" 
d="M450 700h108v-554q0 -60 55 -60q22 0 41 10v-93q-31 -16 -81 -16q-57 0 -90 31.5t-33 97.5v280h-227v-396h-108v396h-92v95h92v64q0 71 40 113t114 42q64 0 115 -21v-91q-47 18 -85 18q-76 0 -76 -80v-45h227v209z" />
    <glyph glyph-name="f_f_i" unicode="ffi" horiz-adv-x="975" 
d="M115 0v396h-92v95h92v64q0 71 40 113t114 42q64 0 115 -21v-91q-47 18 -85 18q-76 0 -76 -80v-45h227v64q0 71 40 113t114 42q64 0 115 -21v-91q-47 18 -85 18q-76 0 -76 -80v-45h335v-491h-108v396h-227v-396h-108v396h-227v-396h-108zM839 579q-29 0 -48.5 19.5
t-19.5 48.5t19.5 49t48.5 20q28 0 47.5 -20t19.5 -49t-19.5 -48.5t-47.5 -19.5z" />
    <glyph glyph-name="f_f_l" unicode="ffl" horiz-adv-x="1014" 
d="M223 396v-396h-108v396h-92v95h92v64q0 71 40 113t114 42q64 0 115 -21v-91q-47 18 -85 18q-76 0 -76 -80v-45h227v64q0 71 40 113t114 42q64 0 115 -21v-91q-47 18 -85 18q-76 0 -76 -80v-45h227v209h108v-554q0 -60 54 -60q24 0 41 10v-93q-31 -16 -80 -16
q-57 0 -90 31.5t-33 97.5v280h-227v-396h-108v396h-227z" />
    <glyph glyph-name=".notdef" horiz-adv-x="727" 
d="M555 0h-471v700h471v-700zM168 627v-554h303v554h-303z" />
    <glyph glyph-name=".null" horiz-adv-x="0" 
 />
    <glyph glyph-name="nonmarkingreturn" horiz-adv-x="333" 
 />
    <glyph glyph-name="space" unicode=" " horiz-adv-x="260" 
 />
    <glyph glyph-name="exclam" unicode="!" horiz-adv-x="310" 
d="M203 12q-20 -20 -49 -20t-50 20q-20 21 -20 50t20 50q21 21 50 21t49 -21q21 -21 21 -50t-21 -50zM203 225h-97l-22 475h142z" />
    <glyph glyph-name="quotedbl" unicode="&#x22;" horiz-adv-x="376" 
d="M139 424h-94v276h94v-276zM332 424h-94v276h94v-276z" />
    <glyph glyph-name="numbersign" unicode="#" horiz-adv-x="750" 
d="M234 0h-86l29 179h-142l13 83h141l29 175h-142l13 84h141l29 179h86l-29 -179h173l28 179h85l-28 -179h142l-14 -84h-141l-28 -175h142l-13 -83h-142l-29 -179h-85l29 179h-174zM302 437l-27 -175h173l28 175h-174z" />
    <glyph glyph-name="dollar" unicode="$" horiz-adv-x="630" 
d="M364 -9v-102h-108v101q-128 12 -210 72v118q39 -36 112 -64q72 -27 145 -27q71 0 116.5 28.5t45.5 76.5q0 38 -31 65q-12 11 -36 21q-29 14 -96 33l-14 4q-57 16 -91 29q-27 10 -70 35q-72 45 -72 141q0 76 53 126t148 62v101h108v-101q90 -10 169 -55v-109
q-107 65 -222 65q-70 0 -106.5 -24.5t-36.5 -65.5q0 -61 144 -102q60 -16 121 -39q65 -23 105 -70.5t40 -113.5q0 -84 -60 -138q-58 -53 -154 -67z" />
    <glyph glyph-name="percent" unicode="%" horiz-adv-x="819" 
d="M245 0h-84l414 700h83zM207 713q75 0 124 -49t49 -121t-49 -121q-49 -48 -124 -48q-73 0 -123 48q-48 50 -48 121t48 121q49 49 123 49zM207 447q41 0 67.5 27.5t26.5 68.5q0 42 -26 69t-68 27q-40 0 -66 -27.5t-26 -68.5t26 -68.5t66 -27.5zM610 326q75 0 124 -49
t49 -120q0 -72 -49 -121t-124 -49q-74 0 -123 49q-48 49 -48 121q0 71 48 120q49 49 123 49zM610 61q42 0 68 27t26 69q0 41 -26.5 68.5t-67.5 27.5q-40 0 -66 -27.5t-26 -68.5t26 -68.5t66 -27.5z" />
    <glyph glyph-name="ampersand" unicode="&#x26;" horiz-adv-x="737" 
d="M506 661v-108q-74 65 -160 65q-51 0 -80.5 -24t-29.5 -66q0 -26 16 -54q17 -30 32 -46l44 -44l182 -178q44 68 47 172h104q0 -142 -75 -246l136 -132h-140l-64 61q-92 -74 -214 -74q-110 0 -186 60q-76 61 -76 168q0 71 39 123q41 53 87 74q-40 56 -40 125q0 76 56 126
t143 50q102 0 179 -52zM307 82q82 0 138 49l-213 208q-34 -13 -58.5 -46.5t-24.5 -75.5q0 -62 45 -98.5t113 -36.5z" />
    <glyph glyph-name="quotesingle" unicode="'" horiz-adv-x="183" 
d="M139 424h-94v276h94v-276z" />
    <glyph glyph-name="parenleft" unicode="(" horiz-adv-x="375" 
d="M340 -206h-111q-147 184 -147 456t147 456h111q-158 -203 -158 -456q0 -256 158 -456z" />
    <glyph glyph-name="parenright" unicode=")" horiz-adv-x="375" 
d="M146 -206h-111q158 200 158 456q0 253 -158 456h111q147 -184 147 -456t-147 -456z" />
    <glyph glyph-name="asterisk" unicode="*" horiz-adv-x="423" 
d="M249 332h-74l2 123l-106 -63l-38 64l108 61l-108 60l38 64l106 -64l-2 123h74l-2 -123l106 64l37 -64l-109 -60l109 -61l-37 -64l-106 63z" />
    <glyph glyph-name="plus" unicode="+" horiz-adv-x="631" 
d="M364 81h-98v199h-198v97h198v199h98v-199h199v-97h-199v-199z" />
    <glyph glyph-name="comma" unicode="," horiz-adv-x="254" 
d="M93 -152h-85l83 280h124z" />
    <glyph glyph-name="hyphen" unicode="-" horiz-adv-x="491" 
d="M393 227h-295v97h295v-97z" />
    <glyph glyph-name="period" unicode="." horiz-adv-x="250" 
d="M126 -8q-30 0 -50.5 20.5t-20.5 50.5q0 29 20.5 49.5t50.5 20.5q28 0 49 -20.5t21 -49.5q0 -30 -20.5 -50.5t-49.5 -20.5z" />
    <glyph glyph-name="slash" unicode="/" horiz-adv-x="523" 
d="M102 -140h-110l421 932h110z" />
    <glyph glyph-name="zero" unicode="0" horiz-adv-x="706" 
d="M353 -13q-133 0 -214 105q-80 107 -80 258q0 150 80 257q81 106 214 106q135 0 214 -106q81 -106 81 -257q0 -152 -81 -258q-79 -105 -214 -105zM353 90q83 0 134 75t51 185t-51 185t-134 75q-82 0 -133 -76q-51 -75 -51 -184q0 -108 51 -185q51 -75 133 -75z" />
    <glyph glyph-name="one" unicode="1" horiz-adv-x="382" 
d="M287 0h-108v582l-153 -82v107l165 93h96v-700z" />
    <glyph glyph-name="two" unicode="2" horiz-adv-x="577" 
d="M527 0h-487v80l220 206q70 65 103 112q30 45 30 96q0 53 -38.5 85.5t-100.5 32.5q-104 0 -196 -87v115q86 73 207 73q99 0 168 -57q70 -57 70 -149q0 -71 -35 -129q-37 -59 -118 -136l-151 -144h328v-98z" />
    <glyph glyph-name="three" unicode="3" horiz-adv-x="574" 
d="M249 -13q-124 0 -209 53v107q86 -62 203 -62q69 0 119 38q50 39 50 104q0 61 -44 98.5t-118 37.5q-48 0 -89 -16v75l188 182h-283v96h429v-83l-179 -172q84 -9 146 -68q61 -58 61 -150q0 -108 -79 -174q-78 -66 -195 -66z" />
    <glyph glyph-name="four" unicode="4" horiz-adv-x="637" 
d="M500 0h-108v183h-363v84l363 433h108v-423h109v-94h-109v-183zM392 559l-238 -282h238v282z" />
    <glyph glyph-name="five" unicode="5" horiz-adv-x="592" 
d="M251 -13q-113 0 -197 48v103q86 -53 192 -53q75 0 127 38q52 39 52 103q0 61 -48.5 100t-127.5 39q-81 0 -168 -30l46 365h360v-96h-280l-20 -161q41 11 88 11q113 0 187 -63t74 -165q0 -110 -82 -174q-82 -65 -203 -65z" />
    <glyph glyph-name="six" unicode="6" horiz-adv-x="639" 
d="M333 -13q-127 0 -201 87q-72 87 -72 241q0 168 83 283q82 115 230 115q87 0 154 -44v-100q-65 44 -142 44q-101 0 -155 -70q-53 -71 -57 -170q61 79 181 79q95 0 160 -62t65 -161q0 -107 -71 -175q-70 -67 -175 -67zM326 84q63 0 103 40q41 41 41 103q0 61 -42 98
q-41 38 -103 38q-51 0 -97 -32q-44 -32 -58 -79q6 -79 47 -123.5t109 -44.5z" />
    <glyph glyph-name="seven" unicode="7" horiz-adv-x="561" 
d="M208 0h-118l303 601h-353v99h478v-85z" />
    <glyph glyph-name="eight" unicode="8" horiz-adv-x="643" 
d="M456 372q64 -21 101.5 -68t37.5 -109q0 -97 -79 -152q-79 -56 -194 -56t-195 56q-79 55 -79 152q0 62 38 109t102 68q-49 21 -77.5 61t-28.5 91q0 83 68 136t172 53q103 0 171 -53t68 -136q0 -51 -28 -91t-77 -61zM322 408q58 0 96 30t38 77t-38 77t-96 30t-96.5 -30
t-38.5 -77t38.5 -77t96.5 -30zM482 202q0 53 -46 87q-44 34 -114 34q-69 0 -115 -34t-46 -87t46 -87q47 -35 115 -35q67 0 114 35q46 34 46 87z" />
    <glyph glyph-name="nine" unicode="9" horiz-adv-x="639" 
d="M306 713q128 0 200 -87q73 -86 73 -241q0 -168 -83 -284q-82 -114 -230 -114q-87 0 -154 44v100q65 -44 142 -44q102 0 154 70q54 70 58 170q-61 -79 -181 -79q-97 0 -161 61t-64 162q0 107 70 174q71 68 176 68zM313 616q-62 0 -103 -41t-41 -102t41 -99q41 -37 104 -37
q52 0 96 32q45 32 59 79q-6 79 -47 123.5t-109 44.5z" />
    <glyph glyph-name="colon" unicode=":" horiz-adv-x="250" 
d="M126 342q-30 0 -50.5 20.5t-20.5 50.5q0 29 20.5 49.5t50.5 20.5q28 0 49 -20.5t21 -49.5q0 -30 -20.5 -50.5t-49.5 -20.5zM126 -8q-30 0 -50.5 20.5t-20.5 50.5q0 29 20.5 49.5t50.5 20.5q28 0 49 -20.5t21 -49.5q0 -30 -20.5 -50.5t-49.5 -20.5z" />
    <glyph glyph-name="semicolon" unicode=";" horiz-adv-x="261" 
d="M93 -152h-85l83 280h124zM152 342q-30 0 -50.5 20.5t-20.5 50.5q0 29 20.5 49.5t50.5 20.5q28 0 49 -20.5t21 -49.5q0 -30 -20.5 -50.5t-49.5 -20.5z" />
    <glyph glyph-name="less" unicode="&#x3c;" horiz-adv-x="631" 
d="M563 176v-105l-495 205v101l495 207v-106l-383 -151z" />
    <glyph glyph-name="equal" unicode="=" horiz-adv-x="631" 
d="M563 394h-495v97h495v-97zM563 166h-495v97h495v-97z" />
    <glyph glyph-name="greater" unicode="&#x3e;" horiz-adv-x="631" 
d="M563 276l-495 -205v105l382 151l-382 151v106l495 -207v-101z" />
    <glyph glyph-name="question" unicode="?" horiz-adv-x="484" 
d="M216 -8q-30 0 -50 20.5t-20 50.5q0 29 20 49.5t50 20.5q29 0 49.5 -20.5t20.5 -49.5q0 -30 -20.5 -50.5t-49.5 -20.5zM265 225h-104v145q69 13 122 51t53 89q0 48 -36 75.5t-97 27.5q-88 0 -175 -57v95q80 59 193 59q95 0 160 -52q66 -52 66 -141q0 -73 -54 -125
q-52 -51 -128 -75v-92z" />
    <glyph glyph-name="at" unicode="@" horiz-adv-x="951" 
d="M475 -163q-180 0 -307 125q-126 125 -126 313q0 185 126 311q126 127 307 127q185 0 309 -120q125 -119 125 -292q0 -108 -50 -176q-49 -67 -129 -67q-47 0 -82.5 20.5t-53.5 54.5q-23 -33 -64 -55.5t-91 -22.5q-89 0 -144 63q-55 62 -55 156t55 156q55 63 143 63
q87 0 143 -68v55h101v-279q0 -102 73 -102q50 0 84 55q36 55 36 148q0 155 -111 268q-111 112 -289 112q-172 0 -286 -119q-113 -119 -113 -288q0 -170 113 -289q112 -118 286 -118q110 0 214 58v-35q-97 -54 -214 -54zM468 145q34 0 64.5 18t48.5 47v128q-18 29 -48.5 47
t-64.5 18q-53 0 -87.5 -37t-34.5 -92t34.5 -92t87.5 -37z" />
    <glyph glyph-name="A" unicode="A" horiz-adv-x="762" 
d="M139 0h-117l306 704h106l306 -704h-118l-76 174h-332zM380 565l-128 -294h256z" />
    <glyph glyph-name="B" unicode="B" horiz-adv-x="721" 
d="M431 0h-344v700h318q95 0 150.5 -46t55.5 -126q0 -52 -26 -90t-67 -54q66 -12 107.5 -62t41.5 -125q0 -89 -64 -143q-63 -54 -172 -54zM197 321v-220h214q64 0 100.5 29.5t36.5 82.5q0 52 -36 80t-101 28h-214zM197 599v-181h189q55 0 85.5 23.5t30.5 67.5t-30.5 67
t-85.5 23h-189z" />
    <glyph glyph-name="C" unicode="C" horiz-adv-x="684" 
d="M431 -13q-157 0 -264 102q-105 103 -105 261t105 260q104 103 264 103q107 0 190 -47v-111q-85 55 -189 55q-110 0 -184 -74q-73 -73 -73 -186t74 -187q74 -73 187 -73q120 0 200 64v-111q-88 -56 -205 -56z" />
    <glyph glyph-name="D" unicode="D" horiz-adv-x="778" 
d="M334 0h-247v700h247q168 0 275 -98t107 -252q0 -155 -107 -253q-106 -97 -275 -97zM197 599v-498h127q132 0 205 67q74 68 74 182t-74 182q-73 67 -205 67h-127z" />
    <glyph glyph-name="E" unicode="E" horiz-adv-x="641" 
d="M598 0h-511v700h498v-101h-388v-175h316v-101h-316v-222h401v-101z" />
    <glyph glyph-name="F" unicode="F" horiz-adv-x="625" 
d="M197 0h-110v700h497v-101h-387v-183h307v-101h-307v-315z" />
    <glyph glyph-name="G" unicode="G" horiz-adv-x="774" 
d="M426 -13q-155 0 -260 102q-104 104 -104 261q0 158 105 260q104 103 263 103q128 0 216 -60v-109q-96 66 -209 66q-115 0 -188 -73q-74 -74 -74 -188q0 -116 72 -188q74 -71 179 -71q107 0 169 59v255h110v-300q-44 -52 -118.5 -84.5t-160.5 -32.5z" />
    <glyph glyph-name="H" unicode="H" horiz-adv-x="759" 
d="M197 0h-110v700h110v-276h365v276h110v-700h-110v323h-365v-323z" />
    <glyph glyph-name="I" unicode="I" horiz-adv-x="295" 
d="M202 0h-110v700h110v-700z" />
    <glyph glyph-name="J" unicode="J" horiz-adv-x="509" 
d="M196 -13q-102 0 -164 43v109q59 -49 143 -49q73 0 109 36.5t36 113.5v460h110v-478q0 -119 -61.5 -177t-172.5 -58z" />
    <glyph glyph-name="K" unicode="K" horiz-adv-x="682" 
d="M197 0h-110v700h110v-286l287 286h141l-324 -320l376 -380h-150l-330 336v-336z" />
    <glyph glyph-name="L" unicode="L" horiz-adv-x="600" 
d="M570 0h-483v700h111v-599h372v-101z" />
    <glyph glyph-name="M" unicode="M" horiz-adv-x="848" 
d="M197 0h-110v700h112l227 -315l225 315h110v-700h-110v532l-195 -264h-64l-195 264v-532z" />
    <glyph glyph-name="N" unicode="N" horiz-adv-x="773" 
d="M195 0h-108v700h96l395 -507v507h108v-700h-93l-398 509v-509z" />
    <glyph glyph-name="O" unicode="O" horiz-adv-x="839" 
d="M245 164q71 -74 174 -74t174 74q71 76 71 186q0 111 -71 185q-71 75 -174 75t-174 -75q-70 -73 -70 -185t70 -186zM675 91q-102 -104 -256 -104t-256 104q-101 106 -101 259q0 154 101 258q102 105 256 105t256 -105q102 -104 102 -258t-102 -259z" />
    <glyph glyph-name="P" unicode="P" horiz-adv-x="662" 
d="M197 0h-110v700h301q110 0 171 -57q63 -55 63 -146t-63 -150q-61 -58 -171 -58h-191v-289zM197 599v-209h182q62 0 97 27.5t35 77.5t-34.5 77t-97.5 27h-182z" />
    <glyph glyph-name="Q" unicode="Q" horiz-adv-x="839" 
d="M430 -13h-11q-154 0 -256 104q-101 106 -101 259q0 154 101 258q102 105 256 105t256 -105q102 -104 102 -258q0 -116 -61 -207q-59 -90 -161 -131q55 -57 112 -57q49 0 83 22v-101q-43 -22 -100 -22q-56 0 -107 32t-113 101zM245 164q71 -74 174 -74t174 74
q71 76 71 186q0 111 -71 185q-71 75 -174 75t-174 -75q-70 -73 -70 -185t70 -186z" />
    <glyph glyph-name="R" unicode="R" horiz-adv-x="733" 
d="M197 0h-110v700h319q108 0 169 -55q62 -56 62 -144q0 -73 -40.5 -124.5t-111.5 -68.5l220 -308h-133l-211 296h-164v-296zM197 599v-206h202q60 0 93.5 27t33.5 77q0 48 -33.5 75t-93.5 27h-202z" />
    <glyph glyph-name="S" unicode="S" horiz-adv-x="630" 
d="M308 -13q-160 0 -263 75v119q41 -36 113 -64q72 -27 144 -27q71 0 116.5 28t45.5 76q0 38 -31 65q-12 11 -36 21q-29 14 -96 33l-14 4q-57 16 -91 29q-27 10 -70 35q-72 45 -72 141q0 87 68.5 139t185.5 52q127 0 224 -58v-110q-107 65 -222 65q-70 0 -106.5 -24.5
t-36.5 -64.5q0 -34 41 -63q6 -4 17 -8.5t25 -9.5t20 -7l80 -23q73 -22 128 -52q93 -50 99 -162q0 -97 -77 -153t-192 -56z" />
    <glyph glyph-name="T" unicode="T" horiz-adv-x="639" 
d="M33 599v101h573v-101h-232v-599h-110v599h-231z" />
    <glyph glyph-name="U" unicode="U" horiz-adv-x="742" 
d="M78 296v404h110v-408q0 -97 49 -149.5t134 -52.5t134.5 52.5t49.5 149.5v408h110v-404q0 -147 -82 -228q-83 -81 -212 -81t-212 80q-81 81 -81 229z" />
    <glyph glyph-name="V" unicode="V" horiz-adv-x="757" 
d="M431 -4h-104l-301 704h122l232 -552l232 552h119z" />
    <glyph glyph-name="W" unicode="W" horiz-adv-x="1065" 
d="M366 -4h-98l-238 704h123l167 -526l170 527h87l170 -527l167 526h121l-239 -704h-97l-166 521z" />
    <glyph glyph-name="X" unicode="X" horiz-adv-x="717" 
d="M145 0h-128l277 379l-233 321h130l169 -232l169 232h128l-234 -319l278 -381h-131l-212 291z" />
    <glyph glyph-name="Y" unicode="Y" horiz-adv-x="684" 
d="M397 0h-110v317l-271 383h128l200 -283l200 283h124l-271 -380v-320z" />
    <glyph glyph-name="Z" unicode="Z" horiz-adv-x="642" 
d="M601 0h-560v78l394 521h-374v101h524v-77l-393 -522h409v-101z" />
    <glyph glyph-name="bracketleft" unicode="[" horiz-adv-x="409" 
d="M371 -206h-284v912h284v-85h-186v-742h186v-85z" />
    <glyph glyph-name="backslash" unicode="\" horiz-adv-x="522" 
d="M530 -140h-108l-421 932h108z" />
    <glyph glyph-name="bracketright" unicode="]" horiz-adv-x="409" 
d="M38 706h284v-912h-284v85h186v742h-186v85z" />
    <glyph glyph-name="asciicircum" unicode="^" horiz-adv-x="535" 
d="M147 342h-103l172 386h103l172 -386h-103l-120 291z" />
    <glyph glyph-name="underscore" unicode="_" horiz-adv-x="634" 
d="M628 -139h-622v74h622v-74z" />
    <glyph glyph-name="grave" unicode="`" horiz-adv-x="522" 
d="M148 715h134l95 -140h-98z" />
    <glyph glyph-name="a" unicode="a" horiz-adv-x="597" 
d="M538 84q16 0 29 7v-82q-22 -16 -63 -16q-84 0 -103 70q-67 -76 -181 -76q-79 0 -132 44q-52 43 -52 121t57 120q56 43 140 43q89 0 157 -38v27q0 107 -144 107q-84 0 -155 -44v95q73 42 179 42q104 0 165.5 -49.5t61.5 -138.5v-183q0 -23 11.5 -36t29.5 -13zM390 139v60
q-62 35 -131 35q-54 0 -84.5 -20t-30.5 -56q0 -38 28.5 -58t77.5 -20q40 0 78 16.5t62 42.5z" />
    <glyph glyph-name="b" unicode="b" horiz-adv-x="640" 
d="M360 -13q-113 0 -175 80v-67h-108v700h108v-276q62 80 175 80q104 0 171 -75q67 -74 67 -183q0 -110 -67 -184q-67 -75 -171 -75zM331 82q68 0 113 47q45 48 45 117q0 68 -45 115q-45 48 -113 48q-46 0 -85.5 -24.5t-60.5 -62.5v-152q21 -39 60 -63.5t86 -24.5z" />
    <glyph glyph-name="c" unicode="c" horiz-adv-x="520" 
d="M307 -13q-111 0 -188 73q-77 74 -77 187t77 185q78 72 189 72q84 0 148 -34v-93q-67 32 -132 32q-74 0 -124 -46q-50 -47 -50 -117q0 -71 50 -118q50 -46 124 -46q79 0 140 37v-92q-70 -40 -157 -40z" />
    <glyph glyph-name="d" unicode="d" horiz-adv-x="640" 
d="M280 -13q-104 0 -171 75q-67 74 -67 184q0 109 67 183q67 75 171 75q113 0 175 -80v276h108v-700h-108v67q-62 -80 -175 -80zM309 82q47 0 86 24.5t60 63.5v152q-21 38 -60.5 62.5t-85.5 24.5q-68 0 -113 -48q-45 -47 -45 -115q0 -69 45 -117q45 -47 113 -47z" />
    <glyph glyph-name="e" unicode="e" horiz-adv-x="572" 
d="M42 246q0 111 70 184q71 74 182 74q76 0 129 -40q104 -74 104 -222v-28h-376q10 -62 59.5 -97t125.5 -35q84 0 158 44v-91q-68 -48 -181 -48t-193 72q-78 72 -78 187zM152 296h266q-2 46 -35 81q-34 36 -94 36q-57 0 -94.5 -33.5t-42.5 -83.5z" />
    <glyph glyph-name="f" unicode="f" horiz-adv-x="409" 
d="M223 396v-396h-108v396h-92v95h92v64q0 71 40 113t114 42q64 0 115 -21v-91q-47 18 -85 18q-76 0 -76 -80v-45h161v-95h-161z" />
    <glyph glyph-name="g" unicode="g" horiz-adv-x="637" 
d="M455 427v64h108v-447q0 -121 -81 -185q-79 -64 -195 -64q-115 0 -192 44v99q79 -48 180 -48q82 0 131 38t49 114v37q-62 -77 -175 -77q-104 0 -171 73t-67 179t67 177q67 73 171 73q115 0 175 -77zM309 97q47 0 87 23.5t59 60.5v143q-19 38 -58.5 61.5t-87.5 23.5
q-68 0 -113 -45t-45 -111t45 -111t113 -45z" />
    <glyph glyph-name="h" unicode="h" horiz-adv-x="614" 
d="M185 323v-323h-108v700h108v-274q72 78 180 78q87 0 134.5 -54t47.5 -150v-300h-108v276q0 71 -34 99t-81 28q-40 0 -79 -22.5t-60 -57.5z" />
    <glyph glyph-name="i" unicode="i" horiz-adv-x="280" 
d="M194 0h-108v491h108v-491zM140 579q-29 0 -48.5 19.5t-19.5 48.5t19.5 49t48.5 20q28 0 47.5 -20t19.5 -49t-19.5 -48.5t-47.5 -19.5z" />
    <glyph glyph-name="j" unicode="j" horiz-adv-x="280" 
d="M31 -205q-63 0 -98 20v94q32 -19 72 -19q81 0 81 87v514h108v-526q0 -82 -43.5 -126t-119.5 -44zM187 598q-19 -19 -48 -19t-49 19q-19 20 -19 49t19 49q20 20 49 20t48 -20q20 -20 20 -49t-20 -49z" />
    <glyph glyph-name="k" unicode="k" horiz-adv-x="571" 
d="M185 0h-108v700h108v-395l194 186h138l-233 -220l268 -271h-148l-219 222v-222z" />
    <glyph glyph-name="l" unicode="l" horiz-adv-x="306" 
d="M200 -13q-57 0 -90 31.5t-33 97.5v584h108v-554q0 -60 54 -60q24 0 41 10v-93q-31 -16 -80 -16z" />
    <glyph glyph-name="m" unicode="m" horiz-adv-x="922" 
d="M185 0h-108v491h108v-64q56 77 162 77q57 0 98 -24t57 -64q27 40 74.5 64t104.5 24q82 0 128 -51t46 -146v-307h-108v282q0 121 -100 121q-39 0 -74.5 -23.5t-51.5 -58.5v-321h-108v282q0 121 -101 121q-38 0 -73.5 -22.5t-53.5 -56.5v-324z" />
    <glyph glyph-name="n" unicode="n" horiz-adv-x="614" 
d="M185 323v-323h-108v491h108v-65q72 78 180 78q87 0 134.5 -54t47.5 -150v-300h-108v276q0 127 -115 127q-40 0 -79 -22.5t-60 -57.5z" />
    <glyph glyph-name="o" unicode="o" horiz-adv-x="623" 
d="M312 82q68 0 115 47q46 46 46 117q0 70 -46 116q-47 47 -115 47q-69 0 -116 -47q-46 -46 -46 -116q0 -71 46 -117q47 -47 116 -47zM312 -13q-118 0 -194 75t-76 184q0 108 76 183t194 75q116 0 193 -75q76 -75 76 -183t-76 -184q-77 -75 -193 -75z" />
    <glyph glyph-name="p" unicode="p" horiz-adv-x="640" 
d="M360 504q104 0 171 -75q67 -74 67 -184q0 -109 -67 -183q-67 -75 -171 -75q-113 0 -175 80v-267h-108v691h108v-67q62 80 175 80zM331 409q-47 0 -86 -24.5t-60 -63.5v-152q21 -38 60.5 -62.5t85.5 -24.5q68 0 113 47q45 48 45 116q0 69 -45 116q-45 48 -113 48z" />
    <glyph glyph-name="q" unicode="q" horiz-adv-x="640" 
d="M280 504q113 0 175 -80v67h108v-691h-108v267q-62 -80 -175 -80q-104 0 -171 75q-67 74 -67 183q0 110 67 184q67 75 171 75zM309 409q-68 0 -113 -48q-45 -47 -45 -116q0 -68 45 -116q45 -47 113 -47q46 0 85.5 24.5t60.5 62.5v152q-21 39 -60 63.5t-86 24.5z" />
    <glyph glyph-name="r" unicode="r" horiz-adv-x="397" 
d="M185 0h-108v491h108v-85q25 43 75 70.5t106 27.5q7 0 10 -1v-108q-18 2 -30 2q-55 0 -99 -28t-62 -68v-301z" />
    <glyph glyph-name="s" unicode="s" horiz-adv-x="512" 
d="M252 -13q-131 0 -205 50v102q86 -59 200 -59q51 0 79.5 15.5t28.5 42.5q0 24 -30 39q-13 6 -47 15l-61 15q-87 22 -126 56.5t-39 96.5q0 67 55 105.5t153 38.5q113 0 181 -44v-99q-89 50 -177 50q-49 0 -75 -14.5t-26 -39.5q0 -23 31 -39q4 -2 47 -15l57 -12
q168 -37 168 -155q0 -67 -59 -108t-155 -41z" />
    <glyph glyph-name="t" unicode="t" horiz-adv-x="436" 
d="M128 134v262h-105v95h105v143h108v-143h155v-95h-155v-231q0 -41 19 -60t58 -19t74 18v-93q-35 -24 -109 -24q-70 0 -110 38t-40 109z" />
    <glyph glyph-name="u" unicode="u" horiz-adv-x="615" 
d="M430 168v323h108v-491h-108v65q-72 -78 -180 -78q-87 0 -134.5 54t-47.5 150v300h108v-276q0 -127 115 -127q40 0 79 22.5t60 57.5z" />
    <glyph glyph-name="v" unicode="v" horiz-adv-x="579" 
d="M338 -4h-98l-220 495h119l153 -355l151 355h115z" />
    <glyph glyph-name="w" unicode="w" horiz-adv-x="823" 
d="M292 -4h-93l-171 495h110l115 -334l114 336h89l116 -336l114 334h109l-172 -495h-94l-119 339z" />
    <glyph glyph-name="x" unicode="x" horiz-adv-x="568" 
d="M45 491h125l116 -152l117 152h123l-178 -232l198 -259h-125l-137 179l-137 -179h-122l198 257z" />
    <glyph glyph-name="y" unicode="y" horiz-adv-x="571" 
d="M127 -205q-61 0 -89 16v95q32 -16 71 -16q41 0 69.5 30t57.5 98l-215 473h120l148 -346l143 346h117l-235 -544q-66 -152 -187 -152z" />
    <glyph glyph-name="z" unicode="z" horiz-adv-x="516" 
d="M480 0h-445v72l273 324h-255v95h411v-74l-273 -322h289v-95z" />
    <glyph glyph-name="braceleft" unicode="{" horiz-adv-x="389" 
d="M52 208v84q35 3 51 22q17 19 21.5 40t4.5 64v135q0 71 41 112t112 41h69v-85h-47q-36 0 -56 -21t-20 -57v-155q0 -112 -75 -138q75 -26 75 -138v-155q0 -36 20 -57t56 -21h47v-85h-69q-71 0 -112 41t-41 112v135q0 41 -4 61q-4 25 -22.5 43.5t-50.5 21.5z" />
    <glyph glyph-name="bar" unicode="|" horiz-adv-x="334" 
d="M216 -111h-98v871h98v-871z" />
    <glyph glyph-name="braceright" unicode="}" horiz-adv-x="389" 
d="M337 292v-84q-33 -3 -52 -23q-16 -18 -20.5 -39t-4.5 -64v-135q0 -71 -41 -112t-112 -41h-69v85h47q36 0 56 21t20 57v155q0 112 75 138q-75 26 -75 138v155q0 36 -20 57t-56 21h-47v85h69q71 0 112 -41t41 -112v-135q0 -42 4 -62q4 -24 23 -42.5t50 -21.5z" />
    <glyph glyph-name="asciitilde" unicode="~" horiz-adv-x="608" 
d="M427 184q-43 0 -123 26q-78 27 -124 27q-72 0 -112 -46v98q13 19 44.5 30.5t67.5 11.5q46 0 124 -27q80 -26 123 -26q73 0 113 46v-99q-32 -41 -113 -41z" />
    <glyph glyph-name="nbspace" unicode="&#xa0;" horiz-adv-x="260" 
 />
    <glyph glyph-name="exclamdown" unicode="&#xa1;" horiz-adv-x="310" 
d="M106 478q21 21 50 21t49 -21q21 -20 21 -49t-21 -50q-20 -21 -49 -21t-50 21q-20 21 -20 50t20 49zM107 270h97l22 -470h-142z" />
    <glyph glyph-name="cent" unicode="&#xa2;" horiz-adv-x="520" 
d="M349 -11v-106h-91v109q-94 15 -155 84q-61 70 -61 171q0 100 61 168q61 69 155 85v108h91v-106q53 -4 107 -32v-93q-67 32 -132 32q-74 0 -124 -46q-50 -47 -50 -117q0 -71 50 -118q50 -46 124 -46q79 0 140 37v-92q-50 -30 -115 -38z" />
    <glyph glyph-name="sterling" unicode="&#xa3;" horiz-adv-x="585" 
d="M542 0h-491v99h15q33 0 47 15t14 48v127h-76v89h76v103q0 109 64.5 170.5t177.5 61.5q93 0 161 -39v-104q-62 40 -144 40q-72 0 -110.5 -37t-38.5 -108v-87h249v-89h-249v-130q0 -39 -27 -60h332v-99z" />
    <glyph glyph-name="currency" unicode="&#xa4;" horiz-adv-x="569" 
d="M162 181l-65 -65l-48 47l65 66q-39 53 -39 122t39 122l-65 65l48 48l65 -65q52 40 122 40t122 -40l65 65l49 -48l-66 -65q39 -52 39 -122q0 -69 -39 -122l66 -66l-49 -47l-65 64q-54 -39 -122 -39q-70 0 -122 40zM194 260q37 -37 90 -37t89 37q37 37 37 91q0 53 -37 90
q-36 38 -89 38q-52 0 -90 -38q-36 -37 -36 -90t36 -91z" />
    <glyph glyph-name="yen" unicode="&#xa5;" horiz-adv-x="652" 
d="M68 135v78h203v83h-203v78h167l-219 326h128l183 -283l185 283h123l-218 -326h167v-78h-203v-83h203v-78h-203v-135h-110v135h-203z" />
    <glyph glyph-name="brokenbar" unicode="&#xa6;" horiz-adv-x="334" 
d="M216 -111h-98v353h98v-353zM216 407h-98v353h98v-353z" />
    <glyph glyph-name="section" unicode="&#xa7;" horiz-adv-x="646" 
d="M489 121q70 -46 70 -118q0 -75 -65.5 -120t-176.5 -45q-122 0 -221 54v108q113 -61 225 -61q60 0 93 18t33 51q0 35 -42 52q-28 12 -47 18l-28 8q-39 12 -63 18q-112 33 -165 75.5t-53 113.5q0 95 108 137q-70 46 -70 118q0 75 65.5 120t176.5 45q119 0 221 -54v-108
q-113 61 -225 61q-59 0 -92.5 -18.5t-33.5 -49.5q0 -25 38 -51q15 -8 61 -23l40 -11l41 -12q112 -33 165 -75.5t53 -113.5q0 -47 -29 -82.5t-79 -54.5zM409 163q84 19 84 84q0 46 -59 72q-30 14 -58 23q-17 6 -71 23q-55 18 -68 23q-39 -8 -61.5 -30t-22.5 -54q0 -45 58 -73
q20 -9 58 -23l71 -23q55 -17 69 -22z" />
    <glyph glyph-name="dieresis" unicode="&#xa8;" horiz-adv-x="522" 
d="M120 605q-18 18 -18 43t18 42q18 18 43 18t42 -18q17 -17 17 -42t-17 -43q-17 -17 -42 -17t-43 17zM327 605q-18 18 -18 43t18 42q18 18 43 18t42 -18q17 -17 17 -42t-17 -43q-17 -17 -42 -17t-43 17z" />
    <glyph glyph-name="copyright" unicode="&#xa9;" horiz-adv-x="848" 
d="M62 350q0 150 106 256q107 107 256 107q151 0 256 -107q106 -106 106 -256t-106 -256q-107 -107 -257 -107q-151 0 -256 106q-105 107 -105 257zM445 153q-87 0 -145 57t-58 140q0 84 58 139q58 57 145 57q57 0 101 -23v-73q-46 29 -101 29t-91.5 -36.5t-36.5 -92.5
q0 -57 37.5 -93t94.5 -36q63 0 106 34v-73q-47 -29 -110 -29zM752 350q0 138 -96 235q-95 98 -232 98t-233 -98q-96 -97 -96 -235t95 -236q96 -97 233 -97t233 98t96 235z" />
    <glyph glyph-name="ordfeminine" unicode="&#xaa;" horiz-adv-x="481" 
d="M212 504q-42 0 -66 -16t-24 -44q0 -30 22.5 -46.5t60.5 -16.5q69 0 110 48v46q-47 29 -103 29zM422 384q12 0 21 6v-59q-17 -11 -44 -11q-63 0 -76 54q-52 -58 -139 -58q-61 0 -100.5 33.5t-39.5 90.5q0 56 42.5 89t107.5 33q68 0 121 -31v24q0 86 -111 86
q-61 0 -117 -35v67q57 33 134 33q78 0 124 -36.5t46 -103.5v-143q0 -39 31 -39z" />
    <glyph glyph-name="guillemotleft" unicode="&#xab;" horiz-adv-x="563" 
d="M289 38h-110l-144 180v55l144 181h110l-163 -208zM528 38h-110l-144 180v55l144 181h110l-162 -208z" />
    <glyph glyph-name="logicalnot" unicode="&#xac;" horiz-adv-x="582" 
d="M514 145h-97v166h-349v97h446v-263z" />
    <glyph glyph-name="uni00AD" unicode="&#xad;" horiz-adv-x="491" 
d="M393 227h-295v97h295v-97z" />
    <glyph glyph-name="registered" unicode="&#xae;" horiz-adv-x="848" 
d="M62 350q0 150 106 256q107 107 256 107q151 0 256 -107q106 -106 106 -256t-106 -256q-107 -107 -257 -107q-151 0 -256 106q-105 107 -105 257zM347 168h-72v380h176q59 0 93.5 -30.5t34.5 -81.5q0 -39 -21 -66t-59 -37l119 -165h-81l-113 156h-77v-156zM347 486v-102
h100q28 0 43.5 13.5t15.5 36.5q0 52 -59 52h-100zM752 350q0 138 -96 235q-95 98 -232 98t-233 -98q-96 -97 -96 -235t95 -236q96 -97 233 -97t233 98t96 235z" />
    <glyph glyph-name="overscore" unicode="&#xaf;" horiz-adv-x="513" 
d="M395 608h-281v77h281v-77z" />
    <glyph glyph-name="degree" unicode="&#xb0;" horiz-adv-x="410" 
d="M268 622q-26 27 -63 27t-63 -27q-26 -26 -26 -64t26 -64t63 -26t63 26t26 64t-26 64zM95 667q46 46 110 46q63 0 109 -46q47 -47 47 -109t-47 -109q-46 -45 -109 -45t-110 45q-46 46 -46 109t46 109z" />
    <glyph glyph-name="plusminus" unicode="&#xb1;" horiz-adv-x="631" 
d="M364 202h-98v167h-198v97h198v169h98v-169h199v-97h-199v-167zM563 36h-495v96h495v-96z" />
    <glyph glyph-name="twosuperior" unicode="&#xb2;" horiz-adv-x="359" 
d="M319 322h-279v64l111 96q66 55 66 96q0 21 -16 34t-43 13q-53 0 -105 -40v88q46 34 112 34q57 0 99 -33q43 -31 43 -85q0 -38 -18 -69t-64 -74l-54 -50h148v-74z" />
    <glyph glyph-name="threesuperior" unicode="&#xb3;" horiz-adv-x="330" 
d="M145 315q-70 0 -121 30v82q55 -34 113 -34q33 0 55 16t22 40t-18.5 39t-51.5 15q-34 0 -59 -11v55l91 79h-141v74h251v-66l-85 -75q44 -7 73 -35.5t29 -76.5q0 -59 -46 -96q-47 -36 -112 -36z" />
    <glyph glyph-name="acute" unicode="&#xb4;" horiz-adv-x="476" 
d="M256 575h-98l95 140h135z" />
    <glyph glyph-name="mu" unicode="&#xb5;" horiz-adv-x="624" 
d="M439 168v323h108v-491h-108v65q-71 -78 -168 -78q-50 0 -85 23v-210h-109v691h109v-276q0 -71 33 -99q34 -28 81 -28q40 0 78.5 23t60.5 57z" />
    <glyph glyph-name="paragraph" unicode="&#xb6;" horiz-adv-x="550" 
d="M462 0h-110v302h-81q-109 0 -170 55t-61 144t61 144t170 55h191v-700z" />
    <glyph glyph-name="middot" unicode="&#xb7;" horiz-adv-x="250" 
d="M126 315q-30 0 -50.5 20.5t-20.5 50.5q0 29 20.5 49.5t50.5 20.5q28 0 49 -21t21 -49q0 -30 -20.5 -50.5t-49.5 -20.5z" />
    <glyph glyph-name="cedilla" unicode="&#xb8;" horiz-adv-x="493" 
d="M248 -138h-125l107 146h88z" />
    <glyph glyph-name="onesuperior" unicode="&#xb9;" horiz-adv-x="253" 
d="M210 322h-89v287l-102 -53v88l106 56h85v-378z" />
    <glyph glyph-name="ordmasculine" unicode="&#xba;" horiz-adv-x="456" 
d="M346 512q0 51 -33 85t-84 34t-84.5 -34t-33.5 -85q0 -52 33.5 -86.5t84.5 -34.5t84 34.5t33 86.5zM374 372q-56 -56 -145 -56q-88 0 -147 56q-57 56 -57 139t57 139q59 56 147 56q89 0 145 -56q57 -56 57 -139t-57 -139z" />
    <glyph glyph-name="guillemotright" unicode="&#xbb;" horiz-adv-x="563" 
d="M528 273v-55l-144 -180h-110l163 208l-163 208h110zM289 273v-55l-144 -180h-110l162 208l-162 208h110z" />
    <glyph glyph-name="onequarter" unicode="&#xbc;" horiz-adv-x="759" 
d="M196 0h-91l418 700h91zM210 322h-89v287l-102 -53v88l106 56h85v-378zM687 0h-86v92h-191v63l187 223h90v-217h55v-69h-55v-92zM601 279l-101 -118h101v118z" />
    <glyph glyph-name="onehalf" unicode="&#xbd;" horiz-adv-x="806" 
d="M196 0h-91l418 700h91zM210 322h-89v287l-102 -53v88l106 56h85v-378zM766 0h-279v64l111 96q66 55 66 96q0 21 -16 34t-43 13q-53 0 -105 -40v88q46 34 112 34q57 0 99 -33q43 -31 43 -85q0 -38 -18 -69t-64 -74l-54 -50h148v-74z" />
    <glyph glyph-name="threequarters" unicode="&#xbe;" horiz-adv-x="805" 
d="M242 0h-91l418 700h91zM733 0h-86v92h-191v63l187 223h90v-217h55v-69h-55v-92zM647 279l-101 -118h101v118zM145 315q-70 0 -121 30v82q55 -34 113 -34q33 0 55 16t22 40t-18.5 39t-51.5 15q-34 0 -59 -11v55l91 79h-141v74h251v-66l-85 -75q44 -7 73 -35.5t29 -76.5
q0 -59 -46 -96q-47 -36 -112 -36z" />
    <glyph glyph-name="questiondown" unicode="&#xbf;" horiz-adv-x="484" 
d="M268 499q30 0 50 -20.5t20 -50.5q0 -29 -20 -49.5t-50 -20.5q-29 0 -49.5 20.5t-20.5 49.5q0 30 20.5 50.5t49.5 20.5zM219 270h104v-139q-71 -13 -123 -51q-52 -37 -52 -87q0 -47 36 -74t97 -27q86 0 175 56v-95q-80 -58 -193 -58q-95 0 -160 52q-66 51 -66 141
q0 72 53 122t129 74v86z" />
    <glyph glyph-name="Agrave" unicode="&#xc0;" horiz-adv-x="762" 
d="M139 0h-117l306 704h106l306 -704h-118l-76 174h-332zM380 565l-128 -294h256zM204 902h135l95 -140h-99z" />
    <glyph glyph-name="Aacute" unicode="&#xc1;" horiz-adv-x="762" 
d="M139 0h-117l306 704h106l306 -704h-118l-76 174h-332zM380 565l-128 -294h256zM430 762h-99l95 140h135z" />
    <glyph glyph-name="Acircumflex" unicode="&#xc2;" horiz-adv-x="762" 
d="M139 0h-117l306 704h106l306 -704h-118l-76 174h-332zM380 565l-128 -294h256zM214 762l114 140h112l114 -140h-101l-69 85l-69 -85h-101z" />
    <glyph glyph-name="Atilde" unicode="&#xc3;" horiz-adv-x="762" 
d="M139 0h-117l306 704h106l306 -704h-118l-76 174h-332zM380 565l-128 -294h256zM275 770h-65q1 54 29.5 90.5t72.5 36.5q30 0 73 -25q43 -24 63 -24q33 0 40 46h65q-1 -54 -29.5 -90.5t-72.5 -36.5q-29 0 -72 24q-43 25 -63 25q-34 0 -41 -46z" />
    <glyph glyph-name="Adieresis" unicode="&#xc4;" horiz-adv-x="762" 
d="M139 0h-117l306 704h106l306 -704h-118l-76 174h-332zM380 565l-128 -294h256zM236 788q-18 18 -18 43t18 42q18 18 43 18t42 -18q17 -17 17 -42t-17 -43q-17 -17 -42 -17t-43 17zM443 788q-18 18 -18 43t18 42q18 18 43 18t42 -18q17 -17 17 -42t-17 -43
q-17 -17 -42 -17t-43 17z" />
    <glyph glyph-name="Aring" unicode="&#xc5;" horiz-adv-x="762" 
d="M139 0h-117l306 704h106l306 -704h-118l-76 174h-332zM380 565l-128 -294h256zM382 735q-41 0 -70 28.5t-29 69.5t29 70t70 29q40 0 69 -29.5t29 -69.5t-29 -69t-69 -29zM382 783q20 0 35 14.5t15 35.5t-15 36t-35 15q-31 1 -44 -25t0 -52t44 -24z" />
    <glyph glyph-name="AE" unicode="&#xc6;" horiz-adv-x="1048" 
d="M1005 0h-504v174h-270l-102 -174h-122l411 700h574v-101h-381v-175h309v-101h-309v-222h394v-101zM501 599h-21l-192 -328h213v328z" />
    <glyph glyph-name="Ccedilla" unicode="&#xc7;" horiz-adv-x="684" 
d="M416 -138h-125l93 128q-140 15 -232 114q-90 100 -90 246q0 158 105 260q104 103 264 103q107 0 190 -47v-111q-85 55 -189 55q-110 0 -184 -74q-73 -73 -73 -186t74 -187q74 -73 187 -73q120 0 200 64v-111q-68 -44 -159 -53z" />
    <glyph glyph-name="Egrave" unicode="&#xc8;" horiz-adv-x="641" 
d="M598 0h-511v700h498v-101h-388v-175h316v-101h-316v-222h401v-101zM174 902h135l95 -140h-99z" />
    <glyph glyph-name="Eacute" unicode="&#xc9;" horiz-adv-x="641" 
d="M598 0h-511v700h498v-101h-388v-175h316v-101h-316v-222h401v-101zM358 762h-99l95 140h135z" />
    <glyph glyph-name="Ecircumflex" unicode="&#xca;" horiz-adv-x="641" 
d="M175 762l114 140h112l114 -140h-101l-69 85l-69 -85h-101zM598 0h-511v700h498v-101h-388v-175h316v-101h-316v-222h401v-101z" />
    <glyph glyph-name="Edieresis" unicode="&#xcb;" horiz-adv-x="641" 
d="M598 0h-511v700h498v-101h-388v-175h316v-101h-316v-222h401v-101zM190 788q-18 18 -18 43t18 42q18 18 43 18t42 -18q17 -17 17 -42t-17 -43q-17 -17 -42 -17t-43 17zM397 788q-18 18 -18 43t18 42q18 18 43 18t42 -18q17 -17 17 -42t-17 -43q-17 -17 -42 -17t-43 17z
" />
    <glyph glyph-name="Igrave" unicode="&#xcc;" horiz-adv-x="295" 
d="M202 0h-110v700h110v-700zM-32 902h135l95 -140h-99z" />
    <glyph glyph-name="Iacute" unicode="&#xcd;" horiz-adv-x="295" 
d="M202 0h-110v700h110v-700zM196 762h-99l95 140h135z" />
    <glyph glyph-name="Icircumflex" unicode="&#xce;" horiz-adv-x="295" 
d="M-20 762l114 140h112l114 -140h-101l-69 85l-69 -85h-101zM202 0h-110v700h110v-700z" />
    <glyph glyph-name="Idieresis" unicode="&#xcf;" horiz-adv-x="293" 
d="M202 0h-110v700h110v-700zM1 788q-18 18 -18 43t18 42q18 18 43 18t42 -18q17 -17 17 -42t-17 -43q-17 -17 -42 -17t-43 17zM208 788q-18 18 -18 43t18 42q18 18 43 18t42 -18q17 -17 17 -42t-17 -43q-17 -17 -42 -17t-43 17z" />
    <glyph glyph-name="Eth" unicode="&#xd0;" horiz-adv-x="828" 
d="M384 0h-247v312h-103v99h103v289h247q168 0 275 -98t107 -252q0 -155 -107 -253q-106 -97 -275 -97zM247 312v-211h127q132 0 205 67q74 68 74 182t-74 182q-73 67 -205 67h-127v-188h151v-99h-151z" />
    <glyph glyph-name="Ntilde" unicode="&#xd1;" horiz-adv-x="773" 
d="M195 0h-108v700h96l395 -507v507h108v-700h-93l-398 509v-509zM280 770h-65q1 54 29.5 90.5t72.5 36.5q30 0 73 -25q44 -24 63 -24q33 0 40 46h65q-1 -54 -29.5 -90.5t-72.5 -36.5q-28 0 -72 24q-43 25 -63 25q-34 0 -41 -46z" />
    <glyph glyph-name="Ograve" unicode="&#xd2;" horiz-adv-x="839" 
d="M245 164q71 -74 174 -74t174 74q71 76 71 186q0 111 -71 185q-71 75 -174 75t-174 -75q-70 -73 -70 -185t70 -186zM675 91q-102 -104 -256 -104t-256 104q-101 106 -101 259q0 154 101 258q102 105 256 105t256 -105q102 -104 102 -258t-102 -259zM249 902h135l95 -140
h-99z" />
    <glyph glyph-name="Oacute" unicode="&#xd3;" horiz-adv-x="839" 
d="M245 164q71 -74 174 -74t174 74q71 76 71 186q0 111 -71 185q-71 75 -174 75t-174 -75q-70 -73 -70 -185t70 -186zM675 91q-102 -104 -256 -104t-256 104q-101 106 -101 259q0 154 101 258q102 105 256 105t256 -105q102 -104 102 -258t-102 -259zM454 762h-99l95 140
h135z" />
    <glyph glyph-name="Ocircumflex" unicode="&#xd4;" horiz-adv-x="839" 
d="M252 762l114 140h112l114 -140h-101l-69 85l-69 -85h-101zM245 164q71 -74 174 -74t174 74q71 76 71 186q0 111 -71 185q-71 75 -174 75t-174 -75q-70 -73 -70 -185t70 -186zM675 91q-102 -104 -256 -104t-256 104q-101 106 -101 259q0 154 101 258q102 105 256 105
t256 -105q102 -104 102 -258t-102 -259z" />
    <glyph glyph-name="Otilde" unicode="&#xd5;" horiz-adv-x="839" 
d="M245 164q71 -74 174 -74t174 74q71 76 71 186q0 111 -71 185q-71 75 -174 75t-174 -75q-70 -73 -70 -185t70 -186zM675 91q-102 -104 -256 -104t-256 104q-101 106 -101 259q0 154 101 258q102 105 256 105t256 -105q102 -104 102 -258t-102 -259zM313 770h-65
q1 54 29.5 90.5t72.5 36.5q30 0 73 -25q43 -24 63 -24q33 0 40 46h65q-1 -54 -29.5 -90.5t-72.5 -36.5q-29 0 -72 24q-43 25 -63 25q-34 0 -41 -46z" />
    <glyph glyph-name="Odieresis" unicode="&#xd6;" horiz-adv-x="839" 
d="M245 164q71 -74 174 -74t174 74q71 76 71 186q0 111 -71 185q-71 75 -174 75t-174 -75q-70 -73 -70 -185t70 -186zM675 91q-102 -104 -256 -104t-256 104q-101 106 -101 259q0 154 101 258q102 105 256 105t256 -105q102 -104 102 -258t-102 -259zM274 788q-18 18 -18 43
t18 42q18 18 43 18t42 -18q17 -17 17 -42t-17 -43q-17 -17 -42 -17t-43 17zM481 788q-18 18 -18 43t18 42q18 18 43 18t42 -18q17 -17 17 -42t-17 -43q-17 -17 -42 -17t-43 17z" />
    <glyph glyph-name="multiply" unicode="&#xd7;" horiz-adv-x="574" 
d="M288 260l-151 -150l-69 68l151 150l-151 152l69 68l150 -151l151 151l68 -68l-150 -152l150 -150l-68 -68z" />
    <glyph glyph-name="Oslash" unicode="&#xd8;" horiz-adv-x="839" 
d="M419 -13q-116 0 -204 61l-39 -48h-90l76 93q-100 103 -100 257t101 258q102 105 256 105q112 0 203 -61l40 48h91l-77 -93q101 -104 101 -257q0 -154 -102 -259q-102 -104 -256 -104zM419 90q103 0 174 74q71 76 71 186q0 101 -58 172l-322 -391q61 -41 135 -41zM175 350
q0 -101 57 -172l322 391q-61 41 -135 41q-103 0 -174 -75q-70 -73 -70 -185z" />
    <glyph glyph-name="Ugrave" unicode="&#xd9;" horiz-adv-x="742" 
d="M78 296v404h110v-408q0 -97 49 -149.5t134 -52.5t134.5 52.5t49.5 149.5v408h110v-404q0 -147 -82 -228q-83 -81 -212 -81t-212 80q-81 81 -81 229zM200 902h135l95 -140h-99z" />
    <glyph glyph-name="Uacute" unicode="&#xda;" horiz-adv-x="742" 
d="M78 296v404h110v-408q0 -97 49 -149.5t134 -52.5t134.5 52.5t49.5 149.5v408h110v-404q0 -147 -82 -228q-83 -81 -212 -81t-212 80q-81 81 -81 229zM415 762h-99l95 140h135z" />
    <glyph glyph-name="Ucircumflex" unicode="&#xdb;" horiz-adv-x="742" 
d="M204 762l114 140h112l114 -140h-101l-69 85l-69 -85h-101zM78 296v404h110v-408q0 -97 49 -149.5t134 -52.5t134.5 52.5t49.5 149.5v408h110v-404q0 -147 -82 -228q-83 -81 -212 -81t-212 80q-81 81 -81 229z" />
    <glyph glyph-name="Udieresis" unicode="&#xdc;" horiz-adv-x="742" 
d="M78 296v404h110v-408q0 -97 49 -149.5t134 -52.5t134.5 52.5t49.5 149.5v408h110v-404q0 -147 -82 -228q-83 -81 -212 -81t-212 80q-81 81 -81 229zM227 788q-18 18 -18 43t18 42q18 18 43 18t42 -18q17 -17 17 -42t-17 -43q-17 -17 -42 -17t-43 17zM434 788
q-18 18 -18 43t18 42q18 18 43 18t42 -18q17 -17 17 -42t-17 -43q-17 -17 -42 -17t-43 17z" />
    <glyph glyph-name="Yacute" unicode="&#xdd;" horiz-adv-x="684" 
d="M397 0h-110v317l-271 383h128l200 -283l200 283h124l-271 -380v-320zM383 762h-99l95 140h135z" />
    <glyph glyph-name="Thorn" unicode="&#xde;" horiz-adv-x="662" 
d="M197 0h-110v700h110v-146h191q108 0 171 -55.5t63 -147.5q0 -91 -63 -150q-61 -58 -171 -58h-191v-143zM197 453v-209h182q62 0 97 27.5t35 77.5q0 51 -34.5 77.5t-97.5 26.5h-182z" />
    <glyph glyph-name="germandbls" unicode="&#xdf;" horiz-adv-x="621" 
d="M362 -13q-58 0 -91 14v95q33 -14 71 -14q60 0 96.5 32t36.5 86q0 60 -45 96.5t-121 36.5h-19v92h19q53 0 83 25.5t30 69.5q0 43 -31.5 69.5t-82.5 26.5q-55 0 -89 -36t-34 -98v-482h-108v481q0 105 63 167q65 62 166 62q102 0 160 -52q59 -53 59 -131q0 -55 -27 -92.5
t-71 -49.5q63 -14 107 -65q45 -50 45 -129q0 -95 -61 -150q-62 -54 -156 -54z" />
    <glyph glyph-name="agrave" unicode="&#xe0;" horiz-adv-x="597" 
d="M538 84q16 0 29 7v-82q-22 -16 -63 -16q-84 0 -103 70q-67 -76 -181 -76q-79 0 -132 44q-52 43 -52 121t57 120q56 43 140 43q89 0 157 -38v27q0 107 -144 107q-84 0 -155 -44v95q73 42 179 42q104 0 165.5 -49.5t61.5 -138.5v-183q0 -23 11.5 -36t29.5 -13zM390 199
q-62 35 -131 35q-54 0 -84.5 -20t-30.5 -56q0 -38 28.5 -58t77.5 -20q40 0 78 16.5t62 42.5v60zM128 715h134l95 -140h-98z" />
    <glyph glyph-name="aacute" unicode="&#xe1;" horiz-adv-x="597" 
d="M538 84q16 0 29 7v-82q-22 -16 -63 -16q-84 0 -103 70q-67 -76 -181 -76q-79 0 -132 44q-52 43 -52 121t57 120q56 43 140 43q89 0 157 -38v27q0 107 -144 107q-84 0 -155 -44v95q73 42 179 42q104 0 165.5 -49.5t61.5 -138.5v-183q0 -23 11.5 -36t29.5 -13zM390 199
q-62 35 -131 35q-54 0 -84.5 -20t-30.5 -56q0 -38 28.5 -58t77.5 -20q40 0 78 16.5t62 42.5v60zM302 575h-98l95 140h135z" />
    <glyph glyph-name="acircumflex" unicode="&#xe2;" horiz-adv-x="597" 
d="M538 84q16 0 29 7v-82q-22 -16 -63 -16q-84 0 -103 70q-67 -76 -181 -76q-79 0 -132 44q-52 43 -52 121t57 120q56 43 140 43q89 0 157 -38v27q0 107 -144 107q-84 0 -155 -44v95q73 42 179 42q104 0 165.5 -49.5t61.5 -138.5v-183q0 -23 11.5 -36t29.5 -13zM390 199
q-62 35 -131 35q-54 0 -84.5 -20t-30.5 -56q0 -38 28.5 -58t77.5 -20q40 0 78 16.5t62 42.5v60zM110 575l114 140h112l114 -140h-101l-69 85l-69 -85h-101z" />
    <glyph glyph-name="atilde" unicode="&#xe3;" horiz-adv-x="597" 
d="M538 84q16 0 29 7v-82q-22 -16 -63 -16q-84 0 -103 70q-67 -76 -181 -76q-79 0 -132 44q-52 43 -52 121t57 120q56 43 140 43q89 0 157 -38v27q0 107 -144 107q-84 0 -155 -44v95q73 42 179 42q104 0 165.5 -49.5t61.5 -138.5v-183q0 -23 11.5 -36t29.5 -13zM390 199
q-62 35 -131 35q-54 0 -84.5 -20t-30.5 -56q0 -38 28.5 -58t77.5 -20q40 0 78 16.5t62 42.5v60zM182 585h-65q1 55 29.5 91.5t72.5 36.5q29 0 72 -25q43 -24 63 -24q34 0 41 46h65q-1 -54 -29.5 -91t-72.5 -37q-28 0 -72 24q-43 25 -64 25q-33 0 -40 -46z" />
    <glyph glyph-name="adieresis" unicode="&#xe4;" horiz-adv-x="597" 
d="M538 84q16 0 29 7v-82q-22 -16 -63 -16q-84 0 -103 70q-67 -76 -181 -76q-79 0 -132 44q-52 43 -52 121t57 120q56 43 140 43q89 0 157 -38v27q0 107 -144 107q-84 0 -155 -44v95q73 42 179 42q104 0 165.5 -49.5t61.5 -138.5v-183q0 -23 11.5 -36t29.5 -13zM390 199
q-62 35 -131 35q-54 0 -84.5 -20t-30.5 -56q0 -38 28.5 -58t77.5 -20q40 0 78 16.5t62 42.5v60zM139 605q-18 18 -18 43t18 42q18 18 43 18t42 -18q17 -17 17 -42t-17 -43q-17 -17 -42 -17t-43 17zM346 605q-18 18 -18 43t18 42q18 18 43 18t42 -18q17 -17 17 -42t-17 -43
q-17 -17 -42 -17t-43 17z" />
    <glyph glyph-name="aring" unicode="&#xe5;" horiz-adv-x="597" 
d="M538 84q16 0 29 7v-82q-22 -16 -63 -16q-84 0 -103 70q-67 -76 -181 -76q-79 0 -132 44q-52 43 -52 121t57 120q56 43 140 43q89 0 157 -38v27q0 107 -144 107q-84 0 -155 -44v95q73 42 179 42q104 0 165.5 -49.5t61.5 -138.5v-183q0 -23 11.5 -36t29.5 -13zM390 199
q-62 35 -131 35q-54 0 -84.5 -20t-30.5 -56q0 -38 28.5 -58t77.5 -20q40 0 78 16.5t62 42.5v60zM355 579q-29 -29 -69 -29t-70 29q-29 29 -29 69t29 69q30 30 70 30t69 -30q30 -29 30 -69t-30 -69zM337 648q1 31 -25 44t-52 0t-25 -44q0 -20 15 -35t36 -15t36 15t15 35z" />
    <glyph glyph-name="ae" unicode="&#xe6;" horiz-adv-x="916" 
d="M871 242v-28h-376q10 -62 60 -97t126 -35q83 0 157 44v-91q-64 -48 -180 -48q-68 0 -125.5 26.5t-93.5 74.5q-93 -101 -218 -101q-82 0 -133.5 44.5t-51.5 120.5q0 78 57 120q56 43 140 43q89 0 157 -38v27q0 107 -144 107q-84 0 -155 -44v95q73 42 179 42
q56 0 105 -21.5t80 -59.5q71 81 184 81q76 0 129 -40q103 -74 103 -222zM403 152q-7 22 -12 48q-64 34 -131 34q-54 0 -85 -20t-31 -56q0 -78 106 -78q46 0 87 20t66 52zM496 296h266q-2 46 -35 81q-33 36 -93 36q-58 0 -95.5 -33.5t-42.5 -83.5z" />
    <glyph glyph-name="ccedilla" unicode="&#xe7;" horiz-adv-x="520" 
d="M305 -138h-125l93 127q-100 12 -165 82q-66 71 -66 176q0 113 77 185q78 72 189 72q84 0 148 -34v-93q-67 32 -132 32q-74 0 -124 -46q-50 -47 -50 -117q0 -71 50 -118q50 -46 124 -46q79 0 140 37v-92q-46 -26 -97 -35z" />
    <glyph glyph-name="egrave" unicode="&#xe8;" horiz-adv-x="572" 
d="M42 246q0 111 70 184q71 74 182 74q76 0 129 -40q104 -74 104 -222v-28h-376q10 -62 59.5 -97t125.5 -35q84 0 158 44v-91q-68 -48 -181 -48t-193 72q-78 72 -78 187zM152 296h266q-2 46 -35 81q-34 36 -94 36q-57 0 -94.5 -33.5t-42.5 -83.5zM150 715h134l95 -140h-98z
" />
    <glyph glyph-name="eacute" unicode="&#xe9;" horiz-adv-x="572" 
d="M42 246q0 111 70 184q71 74 182 74q76 0 129 -40q104 -74 104 -222v-28h-376q10 -62 59.5 -97t125.5 -35q84 0 158 44v-91q-68 -48 -181 -48t-193 72q-78 72 -78 187zM152 296h266q-2 46 -35 81q-34 36 -94 36q-57 0 -94.5 -33.5t-42.5 -83.5zM313 575h-98l95 140h135z
" />
    <glyph glyph-name="ecircumflex" unicode="&#xea;" horiz-adv-x="572" 
d="M42 246q0 111 70 184q71 74 182 74q76 0 129 -40q104 -74 104 -222v-28h-376q10 -62 59.5 -97t125.5 -35q84 0 158 44v-91q-68 -48 -181 -48t-193 72q-78 72 -78 187zM152 296h266q-2 46 -35 81q-34 36 -94 36q-57 0 -94.5 -33.5t-42.5 -83.5zM127 575l114 140h112
l114 -140h-101l-69 85l-69 -85h-101z" />
    <glyph glyph-name="edieresis" unicode="&#xeb;" horiz-adv-x="572" 
d="M42 246q0 111 70 184q71 74 182 74q76 0 129 -40q104 -74 104 -222v-28h-376q10 -62 59.5 -97t125.5 -35q84 0 158 44v-91q-68 -48 -181 -48t-193 72q-78 72 -78 187zM152 296h266q-2 46 -35 81q-34 36 -94 36q-57 0 -94.5 -33.5t-42.5 -83.5zM153 605q-18 18 -18 43
t18 42q18 18 43 18t42 -18q17 -17 17 -42t-17 -43q-17 -17 -42 -17t-43 17zM360 605q-18 18 -18 43t18 42q18 18 43 18t42 -18q17 -17 17 -42t-17 -43q-17 -17 -42 -17t-43 17z" />
    <glyph glyph-name="igrave" unicode="&#xec;" horiz-adv-x="281" 
d="M195 0h-109v491h109v-491zM-46 715h134l95 -140h-98z" />
    <glyph glyph-name="iacute" unicode="&#xed;" horiz-adv-x="281" 
d="M184 576h-97l94 140h135zM195 0h-109v491h109v-491z" />
    <glyph glyph-name="icircumflex" unicode="&#xee;" horiz-adv-x="281" 
d="M-30 575l114 140h112l114 -140h-101l-69 85l-69 -85h-101zM195 0h-109v491h109v-491z" />
    <glyph glyph-name="idieresis" unicode="&#xef;" horiz-adv-x="281" 
d="M-5 605q-18 18 -18 43t18 42q18 18 43 18t42 -18q17 -17 17 -42t-17 -43q-17 -17 -42 -17t-43 17zM202 605q-18 18 -18 43t18 42q18 18 43 18t42 -18q17 -17 17 -42t-17 -43q-17 -17 -42 -17t-43 17zM195 0h-109v491h109v-491z" />
    <glyph glyph-name="eth" unicode="&#xf0;" horiz-adv-x="599" 
d="M268 459q63 0 105 -24l-93 123l-118 -48l-41 55l118 47l-66 88h111l40 -54l95 38l41 -54l-95 -38l107 -144q46 -62 65.5 -108t19.5 -102q0 -105 -73 -178t-185 -73q-111 0 -185 71q-72 70 -72 171t63 165q65 65 163 65zM192 125q43 -43 107 -43t107 43q44 44 44 106
t-44 106t-107 44t-107 -44q-43 -43 -43 -106t43 -106z" />
    <glyph glyph-name="ntilde" unicode="&#xf1;" horiz-adv-x="614" 
d="M77 0v491h108v-65q72 78 180 78q87 0 134.5 -54t47.5 -150v-300h-108v276q0 127 -115 127q-40 0 -79 -22.5t-60 -57.5v-323h-108zM216 585h-65q1 55 29.5 91.5t72.5 36.5q29 0 72 -25q43 -24 63 -24q34 0 41 46h65q-1 -54 -29.5 -91t-72.5 -37q-28 0 -72 24
q-43 25 -64 25q-33 0 -40 -46z" />
    <glyph glyph-name="ograve" unicode="&#xf2;" horiz-adv-x="623" 
d="M312 82q68 0 115 47q46 46 46 117q0 70 -46 116q-47 47 -115 47q-69 0 -116 -47q-46 -46 -46 -116q0 -71 46 -117q47 -47 116 -47zM312 -13q-118 0 -194 75t-76 184q0 108 76 183t194 75q116 0 193 -75q76 -75 76 -183t-76 -184q-77 -75 -193 -75zM145 715h134l95 -140
h-98z" />
    <glyph glyph-name="oacute" unicode="&#xf3;" horiz-adv-x="623" 
d="M312 82q68 0 115 47q46 46 46 117q0 70 -46 116q-47 47 -115 47q-69 0 -116 -47q-46 -46 -46 -116q0 -71 46 -117q47 -47 116 -47zM312 -13q-118 0 -194 75t-76 184q0 108 76 183t194 75q116 0 193 -75q76 -75 76 -183t-76 -184q-77 -75 -193 -75zM351 575h-98l95 140
h135z" />
    <glyph glyph-name="ocircumflex" unicode="&#xf4;" horiz-adv-x="623" 
d="M142 575l114 140h112l114 -140h-101l-69 85l-69 -85h-101zM312 82q68 0 115 47q46 46 46 117q0 70 -46 116q-47 47 -115 47q-69 0 -116 -47q-46 -46 -46 -116q0 -71 46 -117q47 -47 116 -47zM312 -13q-118 0 -194 75t-76 184q0 108 76 183t194 75q116 0 193 -75
q76 -75 76 -183t-76 -184q-77 -75 -193 -75z" />
    <glyph glyph-name="otilde" unicode="&#xf5;" horiz-adv-x="623" 
d="M312 82q68 0 115 47q46 46 46 117q0 70 -46 116q-47 47 -115 47q-69 0 -116 -47q-46 -46 -46 -116q0 -71 46 -117q47 -47 116 -47zM312 -13q-118 0 -194 75t-76 184q0 108 76 183t194 75q116 0 193 -75q76 -75 76 -183t-76 -184q-77 -75 -193 -75zM205 585h-65
q1 55 29.5 91.5t72.5 36.5q29 0 72 -25q44 -24 63 -24q34 0 41 46h65q-1 -54 -29.5 -91t-72.5 -37q-29 0 -73 24q-43 25 -63 25q-33 0 -40 -46z" />
    <glyph glyph-name="odieresis" unicode="&#xf6;" horiz-adv-x="623" 
d="M312 82q68 0 115 47q46 46 46 117q0 70 -46 116q-47 47 -115 47q-69 0 -116 -47q-46 -46 -46 -116q0 -71 46 -117q47 -47 116 -47zM312 -13q-118 0 -194 75t-76 184q0 108 76 183t194 75q116 0 193 -75q76 -75 76 -183t-76 -184q-77 -75 -193 -75zM166 605q-18 18 -18 43
t18 42q18 18 43 18t42 -18q17 -17 17 -42t-17 -43q-17 -17 -42 -17t-43 17zM373 605q-18 18 -18 43t18 42q18 18 43 18t42 -18q17 -17 17 -42t-17 -43q-17 -17 -42 -17t-43 17z" />
    <glyph glyph-name="divide" unicode="&#xf7;" horiz-adv-x="615" 
d="M235 545q0 30 21 51t52 21t51.5 -21t20.5 -51q0 -31 -20.5 -52t-51.5 -21t-52 21t-21 52zM547 280h-479v97h479v-97zM235 114q0 30 21 51.5t52 21.5q30 0 51 -21.5t21 -51.5q0 -31 -20.5 -51.5t-51.5 -20.5t-52 20.5t-21 51.5z" />
    <glyph glyph-name="oslash" unicode="&#xf8;" horiz-adv-x="623" 
d="M312 -13q-81 0 -146 38l-22 -25h-82l54 64q-74 74 -74 182t76 183t194 75q81 0 146 -39l22 26h82l-55 -65q74 -72 74 -180t-76 -184q-77 -75 -193 -75zM150 246q0 -60 34 -103l208 245q-38 21 -80 21q-69 0 -116 -47q-46 -46 -46 -116zM312 82q68 0 115 47q46 46 46 117
q0 57 -34 101l-208 -245q38 -20 81 -20z" />
    <glyph glyph-name="ugrave" unicode="&#xf9;" horiz-adv-x="615" 
d="M538 491v-491h-108v65q-72 -78 -180 -78q-87 0 -134.5 54t-47.5 150v300h108v-276q0 -127 115 -127q40 0 79 22.5t60 57.5v323h108zM151 715h134l95 -140h-98z" />
    <glyph glyph-name="uacute" unicode="&#xfa;" horiz-adv-x="615" 
d="M538 491v-491h-108v65q-72 -78 -180 -78q-87 0 -134.5 54t-47.5 150v300h108v-276q0 -127 115 -127q40 0 79 22.5t60 57.5v323h108zM328 575h-98l95 140h135z" />
    <glyph glyph-name="ucircumflex" unicode="&#xfb;" horiz-adv-x="615" 
d="M538 491v-491h-108v65q-72 -78 -180 -78q-87 0 -134.5 54t-47.5 150v300h108v-276q0 -127 115 -127q40 0 79 22.5t60 57.5v323h108zM134 575l114 140h112l114 -140h-101l-69 85l-69 -85h-101z" />
    <glyph glyph-name="udieresis" unicode="&#xfc;" horiz-adv-x="615" 
d="M538 491v-491h-108v65q-72 -78 -180 -78q-87 0 -134.5 54t-47.5 150v300h108v-276q0 -127 115 -127q40 0 79 22.5t60 57.5v323h108zM158 605q-18 18 -18 43t18 42q18 18 43 18t42 -18q17 -17 17 -42t-17 -43q-17 -17 -42 -17t-43 17zM365 605q-18 18 -18 43t18 42
q18 18 43 18t42 -18q17 -17 17 -42t-17 -43q-17 -17 -42 -17t-43 17z" />
    <glyph glyph-name="yacute" unicode="&#xfd;" horiz-adv-x="571" 
d="M127 -205q-61 0 -89 16v95q32 -16 71 -16q41 0 69.5 30t57.5 98l-215 473h120l148 -346l143 346h117l-235 -544q-66 -152 -187 -152zM320 575h-98l95 140h135z" />
    <glyph glyph-name="thorn" unicode="&#xfe;" horiz-adv-x="640" 
d="M360 504q104 0 171 -75q67 -74 67 -184q0 -109 -67 -183q-67 -75 -171 -75q-113 0 -175 80v-267h-108v900h108v-276q62 80 175 80zM331 409q-47 0 -86 -24.5t-60 -63.5v-152q21 -38 60.5 -62.5t85.5 -24.5q68 0 113 47q45 48 45 116q0 69 -45 116q-45 48 -113 48z" />
    <glyph glyph-name="ydieresis" unicode="&#xff;" horiz-adv-x="571" 
d="M127 -205q-61 0 -89 16v95q32 -16 71 -16q41 0 69.5 30t57.5 98l-215 473h120l148 -346l143 346h117l-235 -544q-66 -152 -187 -152zM137 605q-18 18 -18 43t18 42q18 18 43 18t42 -18q17 -17 17 -42t-17 -43q-17 -17 -42 -17t-43 17zM344 605q-18 18 -18 43t18 42
q18 18 43 18t42 -18q17 -17 17 -42t-17 -43q-17 -17 -42 -17t-43 17z" />
    <glyph glyph-name="Amacron" unicode="&#x100;" horiz-adv-x="762" 
d="M139 0h-117l306 704h106l306 -704h-118l-76 174h-332zM380 565l-128 -294h256zM522 793h-281v77h281v-77z" />
    <glyph glyph-name="amacron" unicode="&#x101;" horiz-adv-x="597" 
d="M538 84q16 0 29 7v-82q-22 -16 -63 -16q-84 0 -103 70q-67 -76 -181 -76q-79 0 -132 44q-52 43 -52 121t57 120q56 43 140 43q89 0 157 -38v27q0 107 -144 107q-84 0 -155 -44v95q73 42 179 42q104 0 165.5 -49.5t61.5 -138.5v-183q0 -23 11.5 -36t29.5 -13zM390 199
q-62 35 -131 35q-54 0 -84.5 -20t-30.5 -56q0 -38 28.5 -58t77.5 -20q40 0 78 16.5t62 42.5v60zM431 608h-281v77h281v-77z" />
    <glyph glyph-name="Abreve" unicode="&#x102;" horiz-adv-x="762" 
d="M139 0h-117l306 704h106l306 -704h-118l-76 174h-332zM380 565l-128 -294h256zM382 748q-64 0 -108 42q-45 45 -46 112h80q2 -34 23 -56.5t51 -22.5t50.5 22.5t22.5 56.5h80q-1 -69 -46 -112q-43 -42 -107 -42z" />
    <glyph glyph-name="abreve" unicode="&#x103;" horiz-adv-x="597" 
d="M538 84q16 0 29 7v-82q-22 -16 -63 -16q-84 0 -103 70q-67 -76 -181 -76q-79 0 -132 44q-52 43 -52 121t57 120q56 43 140 43q89 0 157 -38v27q0 107 -144 107q-84 0 -155 -44v95q73 42 179 42q104 0 165.5 -49.5t61.5 -138.5v-183q0 -23 11.5 -36t29.5 -13zM390 199
q-62 35 -131 35q-54 0 -84.5 -20t-30.5 -56q0 -38 28.5 -58t77.5 -20q40 0 78 16.5t62 42.5v60zM285 561q-65 0 -108 42q-45 45 -46 112h80q2 -34 23 -56.5t51 -22.5t51 22.5t23 56.5h79q-1 -69 -46 -112q-44 -42 -107 -42z" />
    <glyph glyph-name="Aogonek" unicode="&#x104;" horiz-adv-x="762" 
d="M748 -199q-54 0 -87.5 29t-33.5 72q0 54 44 98h-49l-76 174h-332l-75 -174h-117l306 704h106l306 -704q-36 -36 -36 -76q0 -26 17 -41.5t45 -15.5q20 0 38 7v-66q-20 -7 -56 -7zM380 565l-128 -294h256z" />
    <glyph glyph-name="aogonek" unicode="&#x105;" horiz-adv-x="586" 
d="M575 -190q-54 0 -87.5 29t-33.5 72q0 46 31 83q-67 8 -84 69q-67 -76 -181 -76q-79 0 -132 44q-52 43 -52 121t57 120q56 43 140 43q89 0 157 -38v27q0 107 -144 107q-84 0 -155 -44v95q73 42 179 42q104 0 165.5 -49.5t61.5 -138.5v-183q0 -23 11.5 -36t29.5 -13
q16 0 29 7v-82q-36 -36 -36 -76q0 -26 17 -41.5t45 -15.5q20 0 38 7v-66q-20 -7 -56 -7zM390 139v60q-62 35 -131 35q-54 0 -84.5 -20t-30.5 -56q0 -38 28.5 -58t77.5 -20q40 0 78 16.5t62 42.5z" />
    <glyph glyph-name="Cacute" unicode="&#x106;" horiz-adv-x="684" 
d="M431 -13q-157 0 -264 102q-105 103 -105 261t105 260q104 103 264 103q107 0 190 -47v-111q-85 55 -189 55q-110 0 -184 -74q-73 -73 -73 -186t74 -187q74 -73 187 -73q120 0 200 64v-111q-88 -56 -205 -56zM434 762h-99l95 140h135z" />
    <glyph glyph-name="cacute" unicode="&#x107;" horiz-adv-x="518" 
d="M307 -13q-111 0 -188 73q-77 74 -77 187t77 185q78 72 189 72q84 0 148 -34v-93q-67 32 -132 32q-74 0 -124 -46q-50 -47 -50 -117q0 -71 50 -118q50 -46 124 -46q79 0 140 37v-92q-70 -40 -157 -40zM310 575h-98l95 140h135z" />
    <glyph glyph-name="Ccircumflex" unicode="&#x108;" horiz-adv-x="684" 
d="M232 762l114 140h112l114 -140h-101l-69 85l-69 -85h-101zM431 -13q-157 0 -264 102q-105 103 -105 261t105 260q104 103 264 103q107 0 190 -47v-111q-85 55 -189 55q-110 0 -184 -74q-73 -73 -73 -186t74 -187q74 -73 187 -73q120 0 200 64v-111q-88 -56 -205 -56z" />
    <glyph glyph-name="ccircumflex" unicode="&#x109;" horiz-adv-x="518" 
d="M112 575l114 140h112l114 -140h-101l-69 85l-69 -85h-101zM307 -13q-111 0 -188 73q-77 74 -77 187t77 185q78 72 189 72q84 0 148 -34v-93q-67 32 -132 32q-74 0 -124 -46q-50 -47 -50 -117q0 -71 50 -118q50 -46 124 -46q79 0 140 37v-92q-70 -40 -157 -40z" />
    <glyph glyph-name="Cdotaccent" unicode="&#x10a;" horiz-adv-x="684" 
d="M431 -13q-157 0 -264 102q-105 103 -105 261t105 260q104 103 264 103q107 0 190 -47v-111q-85 55 -189 55q-110 0 -184 -74q-73 -73 -73 -186t74 -187q74 -73 187 -73q120 0 200 64v-111q-88 -56 -205 -56zM353 831q0 25 18 43t44 18t44 -17.5t18 -43.5t-18 -44.5
t-44 -18.5t-44 18.5t-18 44.5z" />
    <glyph glyph-name="cdotaccent" unicode="&#x10b;" horiz-adv-x="520" 
d="M307 -13q-111 0 -188 73q-77 74 -77 187t77 185q78 72 189 72q84 0 148 -34v-93q-67 32 -132 32q-74 0 -124 -46q-50 -47 -50 -117q0 -71 50 -118q50 -46 124 -46q79 0 140 37v-92q-70 -40 -157 -40zM238 648q0 25 18 43t44 18t44 -17.5t18 -43.5t-18 -44t-44 -18t-44 18
t-18 44z" />
    <glyph glyph-name="Ccaron" unicode="&#x10c;" horiz-adv-x="684" 
d="M578 902l-114 -140h-112l-114 140h101l69 -85l69 85h101zM431 -13q-157 0 -264 102q-105 103 -105 261t105 260q104 103 264 103q107 0 190 -47v-111q-85 55 -189 55q-110 0 -184 -74q-73 -73 -73 -186t74 -187q74 -73 187 -73q120 0 200 64v-111q-88 -56 -205 -56z" />
    <glyph glyph-name="ccaron" unicode="&#x10d;" horiz-adv-x="518" 
d="M459 715l-114 -140h-112l-114 140h101l69 -85l69 85h101zM307 -13q-111 0 -188 73q-77 74 -77 187t77 185q78 72 189 72q84 0 148 -34v-93q-67 32 -132 32q-74 0 -124 -46q-50 -47 -50 -117q0 -71 50 -118q50 -46 124 -46q79 0 140 37v-92q-70 -40 -157 -40z" />
    <glyph glyph-name="Dcaron" unicode="&#x10e;" horiz-adv-x="778" 
d="M517 902l-114 -140h-112l-114 140h101l69 -85l69 85h101zM334 0h-247v700h247q168 0 275 -98t107 -252q0 -155 -107 -253q-106 -97 -275 -97zM197 599v-498h127q132 0 205 67q74 68 74 182t-74 182q-73 67 -205 67h-127z" />
    <glyph glyph-name="dcaron" unicode="&#x10f;" horiz-adv-x="792" 
d="M280 -13q-104 0 -171 75q-67 74 -67 184q0 109 67 183q67 75 171 75q113 0 175 -80v276h108v-700h-108v67q-62 -80 -175 -80zM309 82q47 0 86 24.5t60 63.5v152q-21 38 -60.5 62.5t-85.5 24.5q-68 0 -113 -48q-45 -47 -45 -115q0 -69 45 -117q45 -47 113 -47zM720 509
h-82l58 191h108z" />
    <glyph glyph-name="Dcroat" unicode="&#x110;" horiz-adv-x="828" 
d="M384 0h-247v312h-103v99h103v289h247q168 0 275 -98t107 -252q0 -155 -107 -253q-106 -97 -275 -97zM247 312v-211h127q132 0 205 67q74 68 74 182t-74 182q-73 67 -205 67h-127v-188h151v-99h-151z" />
    <glyph glyph-name="dslash" unicode="&#x111;" horiz-adv-x="636" 
d="M455 555h-124v69h124v76h108v-76h96v-69h-96v-555h-108v67q-62 -80 -175 -80q-104 0 -171 75q-67 74 -67 184q0 109 67 183q67 75 171 75q113 0 175 -80v131zM309 82q47 0 86 24.5t60 63.5v152q-21 38 -60.5 62.5t-85.5 24.5q-68 0 -113 -48q-45 -47 -45 -115
q0 -69 45 -117q45 -47 113 -47z" />
    <glyph glyph-name="Emacron" unicode="&#x112;" horiz-adv-x="641" 
d="M598 0h-511v700h498v-101h-388v-175h316v-101h-316v-222h401v-101zM483 793h-281v77h281v-77z" />
    <glyph glyph-name="emacron" unicode="&#x113;" horiz-adv-x="572" 
d="M42 246q0 111 70 184q71 74 182 74q76 0 129 -40q104 -74 104 -222v-28h-376q10 -62 59.5 -97t125.5 -35q84 0 158 44v-91q-68 -48 -181 -48t-193 72q-78 72 -78 187zM152 296h266q-2 46 -35 81q-34 36 -94 36q-57 0 -94.5 -33.5t-42.5 -83.5zM439 608h-281v77h281v-77z
" />
    <glyph glyph-name="Ebreve" unicode="&#x114;" horiz-adv-x="641" 
d="M598 0h-511v700h498v-101h-388v-175h316v-101h-316v-222h401v-101zM343 748q-65 0 -108 42q-45 45 -46 112h80q2 -34 23 -56.5t51 -22.5t50.5 22.5t22.5 56.5h80q-1 -69 -46 -112q-44 -42 -107 -42z" />
    <glyph glyph-name="ebreve" unicode="&#x115;" horiz-adv-x="572" 
d="M42 246q0 111 70 184q71 74 182 74q76 0 129 -40q104 -74 104 -222v-28h-376q10 -62 59.5 -97t125.5 -35q84 0 158 44v-91q-68 -48 -181 -48t-193 72q-78 72 -78 187zM152 296h266q-2 46 -35 81q-34 36 -94 36q-57 0 -94.5 -33.5t-42.5 -83.5zM298 561q-64 0 -108 42
q-45 45 -46 112h80q2 -34 23 -56.5t51 -22.5t51 22.5t23 56.5h79q-1 -69 -46 -112q-43 -42 -107 -42z" />
    <glyph glyph-name="Edotaccent" unicode="&#x116;" horiz-adv-x="641" 
d="M598 0h-511v700h498v-101h-388v-175h316v-101h-316v-222h401v-101zM280 831q0 25 18 43t44 18t44 -17.5t18 -43.5t-18 -44.5t-44 -18.5t-44 18.5t-18 44.5z" />
    <glyph glyph-name="edotaccent" unicode="&#x117;" horiz-adv-x="572" 
d="M42 246q0 111 70 184q71 74 182 74q76 0 129 -40q104 -74 104 -222v-28h-376q10 -62 59.5 -97t125.5 -35q84 0 158 44v-91q-68 -48 -181 -48t-193 72q-78 72 -78 187zM152 296h266q-2 46 -35 81q-34 36 -94 36q-57 0 -94.5 -33.5t-42.5 -83.5zM299 586q-25 0 -43.5 18
t-18.5 44q-3 39 38.5 56t67.5 -13q30 -26 13 -67t-57 -38z" />
    <glyph glyph-name="Eogonek" unicode="&#x118;" 
d="M529 0h-442v700h498v-101h-388v-175h316v-101h-316v-222h401v-101q-36 -36 -36 -76q0 -26 17 -41.5t45 -15.5q20 0 38 7v-66q-20 -7 -56 -7q-54 0 -87.5 29t-33.5 72q0 54 44 98z" />
    <glyph glyph-name="eogonek" unicode="&#x119;" horiz-adv-x="572" 
d="M502 -164q-54 0 -87.5 29t-33.5 72q0 31 15 59q-39 -9 -83 -9q-113 0 -193 72q-78 72 -78 187q0 111 70 184q71 74 182 74q76 0 129 -40q104 -74 104 -222v-28h-376q10 -62 59.5 -97t125.5 -35q84 0 158 44v-91q-36 -36 -36 -76q0 -26 17 -41.5t45 -15.5q20 0 38 7v-66
q-20 -7 -56 -7zM152 296h266q-2 46 -35 81q-34 36 -94 36q-57 0 -94.5 -33.5t-42.5 -83.5z" />
    <glyph glyph-name="Ecaron" unicode="&#x11a;" horiz-adv-x="641" 
d="M513 902l-114 -140h-112l-114 140h101l69 -85l69 85h101zM598 0h-511v700h498v-101h-388v-175h316v-101h-316v-222h401v-101z" />
    <glyph glyph-name="ecaron" unicode="&#x11b;" horiz-adv-x="572" 
d="M42 246q0 111 70 184q71 74 182 74q76 0 129 -40q104 -74 104 -222v-28h-376q10 -62 59.5 -97t125.5 -35q84 0 158 44v-91q-68 -48 -181 -48t-193 72q-78 72 -78 187zM152 296h266q-2 46 -35 81q-34 36 -94 36q-57 0 -94.5 -33.5t-42.5 -83.5zM467 715l-114 -140h-112
l-114 140h101l69 -85l69 85h101z" />
    <glyph glyph-name="Gcircumflex" unicode="&#x11c;" horiz-adv-x="774" 
d="M426 -13q-155 0 -260 102q-104 104 -104 261q0 158 105 260q104 103 263 103q128 0 216 -60v-109q-96 66 -209 66q-115 0 -188 -73q-74 -74 -74 -188q0 -116 72 -188q74 -71 179 -71q107 0 169 59v255h110v-300q-44 -52 -118.5 -84.5t-160.5 -32.5zM246 762l114 140h112
l114 -140h-101l-69 85l-69 -85h-101z" />
    <glyph glyph-name="gcircumflex" unicode="&#x11d;" horiz-adv-x="637" 
d="M455 427v64h108v-447q0 -121 -81 -185q-79 -64 -195 -64q-115 0 -192 44v99q79 -48 180 -48q82 0 131 38t49 114v37q-62 -77 -175 -77q-104 0 -171 73t-67 179t67 177q67 73 171 73q115 0 175 -77zM309 97q47 0 87 23.5t59 60.5v143q-19 38 -58.5 61.5t-87.5 23.5
q-68 0 -113 -45t-45 -111t45 -111t113 -45zM142 575l114 140h112l114 -140h-101l-69 85l-69 -85h-101z" />
    <glyph glyph-name="Gbreve" unicode="&#x11e;" horiz-adv-x="774" 
d="M426 -13q-155 0 -260 102q-104 104 -104 261q0 158 105 260q104 103 263 103q128 0 216 -60v-109q-96 66 -209 66q-115 0 -188 -73q-74 -74 -74 -188q0 -116 72 -188q74 -71 179 -71q107 0 169 59v255h110v-300q-44 -52 -118.5 -84.5t-160.5 -32.5zM426 757
q-64 0 -108 42q-45 45 -46 112h80q2 -34 23 -56.5t51 -22.5t50.5 22.5t22.5 56.5h80q-1 -69 -46 -112q-43 -42 -107 -42z" />
    <glyph glyph-name="gbreve" unicode="&#x11f;" horiz-adv-x="637" 
d="M455 427v64h108v-447q0 -121 -81 -185q-79 -64 -195 -64q-115 0 -192 44v99q79 -48 180 -48q82 0 131 38t49 114v37q-62 -77 -175 -77q-104 0 -171 73t-67 179t67 177q67 73 171 73q115 0 175 -77zM309 97q47 0 87 23.5t59 60.5v143q-19 38 -58.5 61.5t-87.5 23.5
q-68 0 -113 -45t-45 -111t45 -111t113 -45zM316 561q-64 0 -108 42q-45 45 -46 112h80q2 -34 23 -56.5t51 -22.5t51 22.5t23 56.5h79q-1 -69 -46 -112q-43 -42 -107 -42z" />
    <glyph glyph-name="Gdotaccent" unicode="&#x120;" horiz-adv-x="774" 
d="M426 -13q-155 0 -260 102q-104 104 -104 261q0 158 105 260q104 103 263 103q128 0 216 -60v-109q-96 66 -209 66q-115 0 -188 -73q-74 -74 -74 -188q0 -116 72 -188q74 -71 179 -71q107 0 169 59v255h110v-300q-44 -52 -118.5 -84.5t-160.5 -32.5zM356 831q0 25 18 43
t44 18t44 -17.5t18 -43.5t-18 -44.5t-44 -18.5t-44 18.5t-18 44.5z" />
    <glyph glyph-name="gdotaccent" unicode="&#x121;" horiz-adv-x="637" 
d="M455 427v64h108v-447q0 -121 -81 -185q-79 -64 -195 -64q-115 0 -192 44v99q79 -48 180 -48q82 0 131 38t49 114v37q-62 -77 -175 -77q-104 0 -171 73t-67 179t67 177q67 73 171 73q115 0 175 -77zM309 97q47 0 87 23.5t59 60.5v143q-19 38 -58.5 61.5t-87.5 23.5
q-68 0 -113 -45t-45 -111t45 -111t113 -45zM309 586q-25 0 -43.5 18t-18.5 44q-3 39 38.5 56t67.5 -13q30 -26 13 -67t-57 -38z" />
    <glyph glyph-name="uni0122" unicode="&#x122;" horiz-adv-x="774" 
d="M426 -13q-155 0 -260 102q-104 104 -104 261q0 158 105 260q104 103 263 103q128 0 216 -60v-109q-96 66 -209 66q-115 0 -188 -73q-74 -74 -74 -188q0 -116 72 -188q74 -71 179 -71q107 0 169 59v255h110v-300q-44 -52 -118.5 -84.5t-160.5 -32.5zM409 -251h-82l58 191
h108z" />
    <glyph glyph-name="uni0123" unicode="&#x123;" horiz-adv-x="637" 
d="M455 427v64h108v-447q0 -121 -81 -185q-79 -64 -195 -64q-115 0 -192 44v99q79 -48 180 -48q82 0 131 38t49 114v37q-62 -77 -175 -77q-104 0 -171 73t-67 179t67 177q67 73 171 73q115 0 175 -77zM309 97q47 0 87 23.5t59 60.5v143q-19 38 -58.5 61.5t-87.5 23.5
q-68 0 -113 -45t-45 -111t45 -111t113 -45zM329 756h82l-58 -191h-108z" />
    <glyph glyph-name="Hcircumflex" unicode="&#x124;" horiz-adv-x="759" 
d="M212 762l114 140h112l114 -140h-101l-69 85l-69 -85h-101zM197 0h-110v700h110v-276h365v276h110v-700h-110v323h-365v-323z" />
    <glyph glyph-name="hcircumflex" unicode="&#x125;" horiz-adv-x="609" 
d="M72 0v700h108v-274q72 78 180 78q87 0 134.5 -54t47.5 -150v-300h-108v276q0 71 -34 99t-81 28q-40 0 -79 -22.5t-60 -57.5v-323h-108zM-40 762l114 140h112l114 -140h-101l-69 85l-69 -85h-101z" />
    <glyph glyph-name="Hbar" unicode="&#x126;" horiz-adv-x="841" 
d="M239 0h-110v519h-81v72h81v109h110v-109h365v109h110v-109h79v-72h-79v-519h-110v323h-365v-323zM239 519v-95h365v95h-365z" />
    <glyph glyph-name="hbar" unicode="&#x127;" horiz-adv-x="645" 
d="M216 271v-271h-108v537h-102v87h102v76h108v-76h151v-87h-151v-163q72 78 180 78q87 0 134.5 -54t47.5 -150v-248h-108v224q0 71 -34 99t-81 28q-40 0 -79 -22.5t-60 -57.5z" />
    <glyph glyph-name="Itilde" unicode="&#x128;" horiz-adv-x="295" 
d="M41 770h-65q1 54 29.5 90.5t72.5 36.5q30 0 73 -25q43 -24 63 -24q33 0 40 46h65q-1 -54 -29.5 -90.5t-72.5 -36.5q-29 0 -72 24q-43 25 -63 25q-34 0 -41 -46zM202 0h-110v700h110v-700z" />
    <glyph glyph-name="itilde" unicode="&#x129;" horiz-adv-x="281" 
d="M34 585h-65q1 55 29.5 91.5t72.5 36.5q29 0 72 -25q43 -24 63 -24q34 0 41 46h65q-1 -54 -29.5 -91t-72.5 -37q-28 0 -72 24q-43 25 -64 25q-33 0 -40 -46zM195 0h-109v491h109v-491z" />
    <glyph glyph-name="Imacron" unicode="&#x12a;" horiz-adv-x="295" 
d="M202 0h-110v700h110v-700zM288 793h-281v77h281v-77z" />
    <glyph glyph-name="imacron" unicode="&#x12b;" horiz-adv-x="281" 
d="M280 608h-281v77h281v-77zM195 0h-109v491h109v-491z" />
    <glyph glyph-name="Ibreve" unicode="&#x12c;" horiz-adv-x="295" 
d="M148 748q-64 0 -108 42q-45 45 -46 112h80q2 -34 23 -56.5t51 -22.5t50.5 22.5t22.5 56.5h80q-1 -69 -46 -112q-43 -42 -107 -42zM202 0h-110v700h110v-700z" />
    <glyph glyph-name="ibreve" unicode="&#x12d;" horiz-adv-x="281" 
d="M141 561q-65 0 -108 42q-45 45 -46 112h80q2 -34 23 -56.5t51 -22.5t51 22.5t23 56.5h79q-1 -69 -46 -112q-44 -42 -107 -42zM195 0h-109v491h109v-491z" />
    <glyph glyph-name="Iogonek" unicode="&#x12e;" horiz-adv-x="295" 
d="M133 0h-41v700h110v-700q-36 -36 -36 -76q0 -26 17 -41.5t45 -15.5q20 0 38 7v-66q-20 -7 -56 -7q-54 0 -87.5 29t-33.5 72q0 54 44 98z" />
    <glyph glyph-name="iogonek" unicode="&#x12f;" horiz-adv-x="279" 
d="M125 0h-39v491h108v-491q-36 -36 -36 -76q0 -26 17 -41.5t45 -15.5q20 0 38 7v-66q-20 -7 -56 -7q-54 0 -87.5 29t-33.5 72q0 54 44 98zM140 579q-29 0 -48.5 19.5t-19.5 48.5t19.5 49t48.5 20q28 0 47.5 -20t19.5 -49t-19.5 -48.5t-47.5 -19.5z" />
    <glyph glyph-name="Idot" unicode="&#x130;" horiz-adv-x="295" 
d="M86 831q0 25 18 43t44 18t44 -17.5t18 -43.5t-18 -44.5t-44 -18.5t-44 18.5t-18 44.5zM202 0h-110v700h110v-700z" />
    <glyph glyph-name="dotlessi" unicode="&#x131;" horiz-adv-x="281" 
d="M195 0h-109v491h109v-491z" />
    <glyph glyph-name="IJ" unicode="&#x132;" horiz-adv-x="619" 
d="M202 262h-110v438h110v-438zM275 -13q-110 0 -183 46v109q74 -52 166 -52q85 0 126.5 38.5t41.5 120.5v451h110v-463q0 -126 -69 -188t-192 -62z" />
    <glyph glyph-name="Jcircumflex" unicode="&#x134;" horiz-adv-x="500" 
d="M199 762l114 140h112l114 -140h-101l-69 85l-69 -85h-101zM187 -13q-102 0 -164 43v109q59 -49 143 -49q73 0 109 36.5t36 113.5v460h110v-478q0 -119 -61.5 -177t-172.5 -58z" />
    <glyph glyph-name="jcircumflex" unicode="&#x135;" horiz-adv-x="280" 
d="M31 -205q-63 0 -98 20v94q32 -19 72 -19q81 0 81 87v514h108v-526q0 -82 -43.5 -126t-119.5 -44zM-29 575l114 140h112l114 -140h-101l-69 85l-69 -85h-101z" />
    <glyph glyph-name="uni0136" unicode="&#x136;" horiz-adv-x="682" 
d="M197 0h-110v700h110v-286l287 286h141l-324 -320l376 -380h-150l-330 336v-336zM349 -251h-82l58 191h108z" />
    <glyph glyph-name="uni0137" unicode="&#x137;" horiz-adv-x="570" 
d="M184 0h-108v700h108v-395l194 186h138l-233 -220l268 -271h-148l-219 222v-222zM285 -251h-82l58 191h108z" />
    <glyph glyph-name="kgreenlandic" unicode="&#x138;" horiz-adv-x="571" 
d="M185 0h-108v491h108v-186l194 186h138l-233 -220l268 -271h-148l-219 222v-222z" />
    <glyph glyph-name="Lacute" unicode="&#x139;" horiz-adv-x="600" 
d="M570 0h-483v700h111v-599h372v-101zM195 762h-99l95 140h135z" />
    <glyph glyph-name="lacute" unicode="&#x13a;" horiz-adv-x="299" 
d="M193 -13q-57 0 -90 31.5t-33 97.5v584h108v-554q0 -60 54 -60q24 0 41 10v-93q-31 -16 -80 -16zM176 762h-99l95 140h135z" />
    <glyph glyph-name="uni013B" unicode="&#x13b;" horiz-adv-x="600" 
d="M570 0h-483v700h111v-599h372v-101zM325 -251h-82l58 191h108z" />
    <glyph glyph-name="lcommaaccent" unicode="&#x13c;" horiz-adv-x="299" 
d="M193 -13q-57 0 -90 31.5t-33 97.5v584h108v-554q0 -60 54 -60q24 0 41 10v-93q-31 -16 -80 -16zM165 -251h-82l58 191h108z" />
    <glyph glyph-name="Lcaron" unicode="&#x13d;" horiz-adv-x="593" 
d="M570 0h-483v700h111v-599h372v-101zM492 509h-82l58 191h108z" />
    <glyph glyph-name="lcaron" unicode="&#x13e;" horiz-adv-x="404" 
d="M190 -13q-57 0 -90 31.5t-33 97.5v584h108v-554q0 -60 54 -60q24 0 41 10v-93q-31 -16 -80 -16zM332 509h-82l58 191h108z" />
    <glyph glyph-name="Ldot" unicode="&#x13f;" horiz-adv-x="600" 
d="M501 313q-30 0 -50.5 20.5t-20.5 50.5q0 29 20.5 49.5t50.5 20.5q29 0 49.5 -21t20.5 -49q0 -30 -20.5 -50.5t-49.5 -20.5zM570 0h-483v700h111v-599h372v-101z" />
    <glyph glyph-name="ldot" unicode="&#x140;" horiz-adv-x="439" 
d="M196 -13q-57 0 -90 31.5t-33 97.5v584h108v-554q0 -60 54 -60q24 0 41 10v-93q-31 -16 -80 -16zM328 313q-30 0 -50.5 20.5t-20.5 50.5q0 29 20.5 49.5t50.5 20.5q28 0 49 -21t21 -49q0 -30 -20.5 -50.5t-49.5 -20.5z" />
    <glyph glyph-name="Lslash" unicode="&#x141;" horiz-adv-x="623" 
d="M593 0h-483v303l-96 -61v96l96 60v302h110v-231l151 95v-95l-151 -95v-273h373v-101z" />
    <glyph glyph-name="lslash" unicode="&#x142;" horiz-adv-x="387" 
d="M250 -13q-57 0 -89.5 31t-32.5 98v179l-102 -65v96l102 64v310h108v-241l102 65v-95l-102 -65v-218q0 -60 54 -60q22 0 41 10v-93q-31 -16 -81 -16z" />
    <glyph glyph-name="Nacute" unicode="&#x143;" horiz-adv-x="773" 
d="M195 0h-108v700h96l395 -507v507h108v-700h-93l-398 509v-509zM429 762h-99l95 140h135z" />
    <glyph glyph-name="nacute" unicode="&#x144;" horiz-adv-x="614" 
d="M77 0v491h108v-65q72 78 180 78q87 0 134.5 -54t47.5 -150v-300h-108v276q0 127 -115 127q-40 0 -79 -22.5t-60 -57.5v-323h-108zM332 575h-98l95 140h135z" />
    <glyph glyph-name="uni0145" unicode="&#x145;" horiz-adv-x="773" 
d="M195 0h-108v700h96l395 -507v507h108v-700h-93l-398 509v-509zM389 -251h-82l58 191h108z" />
    <glyph glyph-name="uni0146" unicode="&#x146;" horiz-adv-x="614" 
d="M185 323v-323h-108v491h108v-65q72 78 180 78q87 0 134.5 -54t47.5 -150v-300h-108v276q0 127 -115 127q-40 0 -79 -22.5t-60 -57.5zM295 -251h-82l58 191h108z" />
    <glyph glyph-name="Ncaron" unicode="&#x147;" horiz-adv-x="773" 
d="M557 902l-114 -140h-112l-114 140h101l69 -85l69 85h101zM195 0h-108v700h96l395 -507v507h108v-700h-93l-398 509v-509z" />
    <glyph glyph-name="ncaron" unicode="&#x148;" horiz-adv-x="614" 
d="M77 0v491h108v-65q72 78 180 78q87 0 134.5 -54t47.5 -150v-300h-108v276q0 127 -115 127q-40 0 -79 -22.5t-60 -57.5v-323h-108zM482 715l-114 -140h-112l-114 140h101l69 -85l69 85h101z" />
    <glyph glyph-name="napostrophe" unicode="&#x149;" horiz-adv-x="741" 
d="M204 0v491h108v-65q72 78 180 78q87 0 134.5 -54t47.5 -150v-300h-108v276q0 127 -115 127q-40 0 -79 -22.5t-60 -57.5v-323h-108zM104 509h-82l58 191h108z" />
    <glyph glyph-name="Eng" unicode="&#x14a;" horiz-adv-x="773" 
d="M195 0h-108v700h96l395 -507v507h108v-705q0 -98 -48.5 -149t-138.5 -51q-73 0 -116 24v104q37 -25 90 -25q104 0 104 110v12l-382 489v-509z" />
    <glyph glyph-name="eng" unicode="&#x14b;" horiz-adv-x="614" 
d="M547 300v-335q0 -82 -43.5 -126t-119.5 -44q-63 0 -98 20v94q32 -19 72 -19q81 0 81 87v299q0 71 -34 99t-81 28q-40 0 -79 -22.5t-60 -57.5v-323h-108v491h108v-65q72 78 180 78q87 0 134.5 -54t47.5 -150z" />
    <glyph glyph-name="Omacron" unicode="&#x14c;" horiz-adv-x="839" 
d="M245 164q71 -74 174 -74t174 74q71 76 71 186q0 111 -71 185q-71 75 -174 75t-174 -75q-70 -73 -70 -185t70 -186zM675 91q-102 -104 -256 -104t-256 104q-101 106 -101 259q0 154 101 258q102 105 256 105t256 -105q102 -104 102 -258t-102 -259zM560 793h-281v77h281
v-77z" />
    <glyph glyph-name="omacron" unicode="&#x14d;" horiz-adv-x="623" 
d="M312 82q68 0 115 47q46 46 46 117q0 70 -46 116q-47 47 -115 47q-69 0 -116 -47q-46 -46 -46 -116q0 -71 46 -117q47 -47 116 -47zM312 -13q-118 0 -194 75t-76 184q0 108 76 183t194 75q116 0 193 -75q76 -75 76 -183t-76 -184q-77 -75 -193 -75zM452 608h-281v77h281
v-77z" />
    <glyph glyph-name="Obreve" unicode="&#x14e;" horiz-adv-x="839" 
d="M245 164q71 -74 174 -74t174 74q71 76 71 186q0 111 -71 185q-71 75 -174 75t-174 -75q-70 -73 -70 -185t70 -186zM675 91q-102 -104 -256 -104t-256 104q-101 106 -101 259q0 154 101 258q102 105 256 105t256 -105q102 -104 102 -258t-102 -259zM420 757q-64 0 -108 42
q-45 45 -46 112h80q2 -34 23 -56.5t51 -22.5t50.5 22.5t22.5 56.5h80q-1 -69 -46 -112q-43 -42 -107 -42z" />
    <glyph glyph-name="obreve" unicode="&#x14f;" horiz-adv-x="623" 
d="M312 82q68 0 115 47q46 46 46 117q0 70 -46 116q-47 47 -115 47q-69 0 -116 -47q-46 -46 -46 -116q0 -71 46 -117q47 -47 116 -47zM312 -13q-118 0 -194 75t-76 184q0 108 76 183t194 75q116 0 193 -75q76 -75 76 -183t-76 -184q-77 -75 -193 -75zM312 566q-64 0 -108 42
q-45 45 -46 112h80q2 -34 23 -56.5t51 -22.5t51 22.5t23 56.5h79q-1 -69 -46 -112q-43 -42 -107 -42z" />
    <glyph glyph-name="Ohungarumlaut" unicode="&#x150;" horiz-adv-x="839" 
d="M245 164q71 -74 174 -74t174 74q71 76 71 186q0 111 -71 185q-71 75 -174 75t-174 -75q-70 -73 -70 -185t70 -186zM675 91q-102 -104 -256 -104t-256 104q-101 106 -101 259q0 154 101 258q102 105 256 105t256 -105q102 -104 102 -258t-102 -259zM576 762h-99l95 140
h135zM371 762h-99l95 140h135z" />
    <glyph glyph-name="ohungarumlaut" unicode="&#x151;" horiz-adv-x="623" 
d="M312 82q68 0 115 47q46 46 46 117q0 70 -46 116q-47 47 -115 47q-69 0 -116 -47q-46 -46 -46 -116q0 -71 46 -117q47 -47 116 -47zM312 -13q-118 0 -194 75t-76 184q0 108 76 183t194 75q116 0 193 -75q76 -75 76 -183t-76 -184q-77 -75 -193 -75zM455 575h-98l95 140
h134zM250 575h-99l95 140h135z" />
    <glyph glyph-name="OE" unicode="&#x152;" horiz-adv-x="1103" 
d="M1060 0h-617q-169 0 -275 97t-106 253q0 155 106 252q107 98 275 98h604v-101h-381v-175h309v-101h-309v-222h394v-101zM455 101h100v498h-100q-132 0 -206 -66t-74 -183t74 -183t206 -66z" />
    <glyph glyph-name="oe" unicode="&#x153;" horiz-adv-x="996" 
d="M737 -13q-137 0 -216 97q-31 -43 -90 -70t-121 -27q-116 0 -193 75q-75 75 -75 184q0 108 75 183q77 75 194 75q131 0 209 -95q72 95 199 95q76 0 129 -40q103 -74 103 -222v-28h-376q11 -62 61 -97t125 -35q83 0 157 44v-91q-64 -48 -181 -48zM472 246q0 70 -46 116
q-47 47 -115 47t-115 -47q-46 -46 -46 -116q0 -71 46 -117q47 -47 115 -47t115 47q46 46 46 117zM576 296h266q-1 44 -35 81q-33 36 -93 36q-57 0 -95 -33.5t-43 -83.5z" />
    <glyph glyph-name="Racute" unicode="&#x154;" horiz-adv-x="733" 
d="M197 0h-110v700h319q108 0 169 -55q62 -56 62 -144q0 -73 -40.5 -124.5t-111.5 -68.5l220 -308h-133l-211 296h-164v-296zM197 599v-206h202q60 0 93.5 27t33.5 77q0 48 -33.5 75t-93.5 27h-202zM348 762h-99l95 140h135z" />
    <glyph glyph-name="racute" unicode="&#x155;" horiz-adv-x="397" 
d="M185 0h-108v491h108v-85q25 43 75 70.5t106 27.5q7 0 10 -1v-108q-18 2 -30 2q-55 0 -99 -28t-62 -68v-301zM231 575h-98l95 140h135z" />
    <glyph glyph-name="uni0156" unicode="&#x156;" horiz-adv-x="733" 
d="M197 0h-110v700h319q108 0 169 -55q62 -56 62 -144q0 -73 -40.5 -124.5t-111.5 -68.5l220 -308h-133l-211 296h-164v-296zM197 599v-206h202q60 0 93.5 27t33.5 77q0 48 -33.5 75t-93.5 27h-202zM355 -251h-82l58 191h108z" />
    <glyph glyph-name="uni0157" unicode="&#x157;" horiz-adv-x="397" 
d="M185 0h-108v491h108v-85q25 43 75 70.5t106 27.5q7 0 10 -1v-108q-18 2 -30 2q-55 0 -99 -28t-62 -68v-301zM105 -251h-82l58 191h108z" />
    <glyph glyph-name="Rcaron" unicode="&#x158;" horiz-adv-x="733" 
d="M197 0h-110v700h319q108 0 169 -55q62 -56 62 -144q0 -73 -40.5 -124.5t-111.5 -68.5l220 -308h-133l-211 296h-164v-296zM197 599v-206h202q60 0 93.5 27t33.5 77q0 48 -33.5 75t-93.5 27h-202zM508 902l-114 -140h-112l-114 140h101l69 -85l69 85h101z" />
    <glyph glyph-name="rcaron" unicode="&#x159;" horiz-adv-x="392" 
d="M382 715l-114 -140h-112l-114 140h101l69 -85l69 85h101zM180 0h-108v491h108v-85q25 43 75 70.5t106 27.5q7 0 10 -1v-108q-18 2 -30 2q-55 0 -99 -28t-62 -68v-301z" />
    <glyph glyph-name="Sacute" unicode="&#x15a;" horiz-adv-x="628" 
d="M308 -13q-160 0 -263 75v119q41 -36 113 -64q72 -27 144 -27q71 0 116.5 28t45.5 76q0 38 -31 65q-12 11 -36 21q-29 14 -96 33l-14 4q-57 16 -91 29q-27 10 -70 35q-72 45 -72 141q0 87 68.5 139t185.5 52q127 0 224 -58v-110q-107 65 -222 65q-70 0 -106.5 -24.5
t-36.5 -64.5q0 -34 41 -63q6 -4 17 -8.5t25 -9.5t20 -7l80 -23q73 -22 128 -52q93 -50 99 -162q0 -97 -77 -153t-192 -56zM323 762h-99l95 140h135z" />
    <glyph glyph-name="sacute" unicode="&#x15b;" horiz-adv-x="512" 
d="M252 -13q-131 0 -205 50v102q86 -59 200 -59q51 0 79.5 15.5t28.5 42.5q0 24 -30 39q-13 6 -47 15l-61 15q-87 22 -126 56.5t-39 96.5q0 67 55 105.5t153 38.5q113 0 181 -44v-99q-89 50 -177 50q-49 0 -75 -14.5t-26 -39.5q0 -23 31 -39q4 -2 47 -15l57 -12
q168 -37 168 -155q0 -67 -59 -108t-155 -41zM265 575h-98l95 140h135z" />
    <glyph glyph-name="Scircumflex" unicode="&#x15c;" horiz-adv-x="628" 
d="M308 -13q-160 0 -263 75v119q41 -36 113 -64q72 -27 144 -27q71 0 116.5 28t45.5 76q0 38 -31 65q-12 11 -36 21q-29 14 -96 33l-14 4q-57 16 -91 29q-27 10 -70 35q-72 45 -72 141q0 87 68.5 139t185.5 52q127 0 224 -58v-110q-107 65 -222 65q-70 0 -106.5 -24.5
t-36.5 -64.5q0 -34 41 -63q6 -4 17 -8.5t25 -9.5t20 -7l80 -23q73 -22 128 -52q93 -50 99 -162q0 -97 -77 -153t-192 -56zM144 762l114 140h112l114 -140h-101l-69 85l-69 -85h-101z" />
    <glyph glyph-name="scircumflex" unicode="&#x15d;" horiz-adv-x="512" 
d="M252 -13q-131 0 -205 50v102q86 -59 200 -59q51 0 79.5 15.5t28.5 42.5q0 24 -30 39q-13 6 -47 15l-61 15q-87 22 -126 56.5t-39 96.5q0 67 55 105.5t153 38.5q113 0 181 -44v-99q-89 50 -177 50q-49 0 -75 -14.5t-26 -39.5q0 -23 31 -39q4 -2 47 -15l57 -12
q168 -37 168 -155q0 -67 -59 -108t-155 -41zM84 575l114 140h112l114 -140h-101l-69 85l-69 -85h-101z" />
    <glyph glyph-name="Scedilla" unicode="&#x15e;" horiz-adv-x="628" 
d="M310 -138h-125l92 126q-140 7 -232 74v119q41 -36 113 -64q72 -27 144 -27q71 0 116.5 28t45.5 76q0 38 -31 65q-12 11 -36 21q-29 14 -96 33l-14 4q-57 16 -91 29q-27 10 -70 35q-72 45 -72 141q0 87 68.5 139t185.5 52q127 0 224 -58v-110q-107 65 -222 65
q-70 0 -106.5 -24.5t-36.5 -64.5q0 -34 41 -63q6 -4 17 -8.5t25 -9.5t20 -7l80 -23q73 -22 128 -52q93 -50 99 -162q0 -80 -56 -134.5t-149 -69.5z" />
    <glyph glyph-name="scedilla" unicode="&#x15f;" horiz-adv-x="512" 
d="M247 -138h-125l92 127q-109 8 -167 48v102q86 -59 200 -59q51 0 79.5 15.5t28.5 42.5q0 24 -30 39q-13 6 -47 15l-61 15q-87 22 -126 56.5t-39 96.5q0 67 55 105.5t153 38.5q113 0 181 -44v-99q-89 50 -177 50q-49 0 -75 -14.5t-26 -39.5q0 -23 31 -39q4 -2 47 -15
l57 -12q168 -37 168 -155q0 -56 -42.5 -94.5t-114.5 -49.5z" />
    <glyph glyph-name="Scaron" unicode="&#x160;" horiz-adv-x="628" 
d="M308 -13q-160 0 -263 75v119q41 -36 113 -64q72 -27 144 -27q71 0 116.5 28t45.5 76q0 38 -31 65q-12 11 -36 21q-29 14 -96 33l-14 4q-57 16 -91 29q-27 10 -70 35q-72 45 -72 141q0 87 68.5 139t185.5 52q127 0 224 -58v-110q-107 65 -222 65q-70 0 -106.5 -24.5
t-36.5 -64.5q0 -34 41 -63q6 -4 17 -8.5t25 -9.5t20 -7l80 -23q73 -22 128 -52q93 -50 99 -162q0 -97 -77 -153t-192 -56zM474 902l-114 -140h-112l-114 140h101l69 -85l69 85h101z" />
    <glyph glyph-name="scaron" unicode="&#x161;" horiz-adv-x="512" 
d="M252 -13q-131 0 -205 50v102q86 -59 200 -59q51 0 79.5 15.5t28.5 42.5q0 24 -30 39q-13 6 -47 15l-61 15q-87 22 -126 56.5t-39 96.5q0 67 55 105.5t153 38.5q113 0 181 -44v-99q-89 50 -177 50q-49 0 -75 -14.5t-26 -39.5q0 -23 31 -39q4 -2 47 -15l57 -12
q168 -37 168 -155q0 -67 -59 -108t-155 -41zM427 715l-114 -140h-112l-114 140h101l69 -85l69 85h101z" />
    <glyph glyph-name="uni0162" unicode="&#x162;" horiz-adv-x="639" 
d="M298 -138h-125l101 138h-10v599h-231v101h573v-101h-232v-599h-10z" />
    <glyph glyph-name="uni0163" unicode="&#x163;" horiz-adv-x="436" 
d="M128 134v262h-105v95h105v143h108v-143h155v-95h-155v-231q0 -41 19 -60t58 -19t74 18v-93q-23 -15 -76 -22l-61 -127h-125l97 133q-94 25 -94 139z" />
    <glyph glyph-name="Tcaron" unicode="&#x164;" horiz-adv-x="639" 
d="M490 902l-114 -140h-112l-114 140h101l69 -85l69 85h101zM33 599v101h573v-101h-232v-599h-110v599h-231z" />
    <glyph glyph-name="tcaron" unicode="&#x165;" horiz-adv-x="602" 
d="M137 396h-105v95h105v143h108v-143h155v-95h-155v-231q0 -41 18.5 -60t58.5 -19t74 18v-93q-35 -24 -109 -24q-70 0 -110 38t-40 109v262zM530 509h-82l58 191h108z" />
    <glyph glyph-name="Tbar" unicode="&#x166;" horiz-adv-x="639" 
d="M374 0h-110v312h-120v99h120v188h-231v101h573v-101h-232v-188h120v-99h-120v-312z" />
    <glyph glyph-name="tbar" unicode="&#x167;" horiz-adv-x="436" 
d="M23 309h105v90h-105v92h105v143h108v-143h155v-92h-155v-90h155v-92h-155v-52q0 -41 19 -60t58 -19t74 18v-93q-35 -24 -109 -24q-70 0 -110 38t-40 109v83h-105v92z" />
    <glyph glyph-name="Utilde" unicode="&#x168;" horiz-adv-x="742" 
d="M265 770h-65q1 54 29.5 90.5t72.5 36.5q30 0 73 -25q43 -24 63 -24q33 0 40 46h65q-1 -54 -29.5 -90.5t-72.5 -36.5q-29 0 -72 24q-43 25 -63 25q-34 0 -41 -46zM78 296v404h110v-408q0 -97 49 -149.5t134 -52.5t134.5 52.5t49.5 149.5v408h110v-404q0 -147 -82 -228
q-83 -81 -212 -81t-212 80q-81 81 -81 229z" />
    <glyph glyph-name="utilde" unicode="&#x169;" horiz-adv-x="615" 
d="M538 491v-491h-108v65q-72 -78 -180 -78q-87 0 -134.5 54t-47.5 150v300h108v-276q0 -127 115 -127q40 0 79 22.5t60 57.5v323h108zM197 585h-65q1 55 29.5 91.5t72.5 36.5q29 0 72 -25q44 -24 63 -24q34 0 41 46h65q-1 -54 -29.5 -91t-72.5 -37q-29 0 -73 24
q-43 25 -63 25q-33 0 -40 -46z" />
    <glyph glyph-name="Umacron" unicode="&#x16a;" horiz-adv-x="742" 
d="M78 296v404h110v-408q0 -97 49 -149.5t134 -52.5t134.5 52.5t49.5 149.5v408h110v-404q0 -147 -82 -228q-83 -81 -212 -81t-212 80q-81 81 -81 229zM513 793h-281v77h281v-77z" />
    <glyph glyph-name="umacron" unicode="&#x16b;" horiz-adv-x="615" 
d="M538 491v-491h-108v65q-72 -78 -180 -78q-87 0 -134.5 54t-47.5 150v300h108v-276q0 -127 115 -127q40 0 79 22.5t60 57.5v323h108zM444 608h-281v77h281v-77z" />
    <glyph glyph-name="Ubreve" unicode="&#x16c;" horiz-adv-x="742" 
d="M78 296v404h110v-408q0 -97 49 -149.5t134 -52.5t134.5 52.5t49.5 149.5v408h110v-404q0 -147 -82 -228q-83 -81 -212 -81t-212 80q-81 81 -81 229zM372 748q-64 0 -108 42q-45 45 -46 112h80q2 -34 23 -56.5t51 -22.5t50.5 22.5t22.5 56.5h80q-1 -69 -46 -112
q-43 -42 -107 -42z" />
    <glyph glyph-name="ubreve" unicode="&#x16d;" horiz-adv-x="615" 
d="M538 491v-491h-108v65q-72 -78 -180 -78q-87 0 -134.5 54t-47.5 150v300h108v-276q0 -127 115 -127q40 0 79 22.5t60 57.5v323h108zM303 561q-65 0 -108 42q-45 45 -46 112h80q2 -34 23 -56.5t51 -22.5t51 22.5t23 56.5h79q-1 -69 -46 -112q-44 -42 -107 -42z" />
    <glyph glyph-name="Uring" unicode="&#x16e;" horiz-adv-x="742" 
d="M373 735q-41 0 -70 28.5t-29 69.5t29 70t70 29q40 0 69 -29.5t29 -69.5t-29 -69t-69 -29zM373 783q20 0 35 14.5t15 35.5t-15 36t-35 15q-31 1 -44 -25t0 -52t44 -24zM78 296v404h110v-408q0 -97 49 -149.5t134 -52.5t134.5 52.5t49.5 149.5v408h110v-404
q0 -147 -82 -228q-83 -81 -212 -81t-212 80q-81 81 -81 229z" />
    <glyph glyph-name="uring" unicode="&#x16f;" horiz-adv-x="615" 
d="M538 491v-491h-108v65q-72 -78 -180 -78q-87 0 -134.5 54t-47.5 150v300h108v-276q0 -127 115 -127q40 0 79 22.5t60 57.5v323h108zM372 579q-29 -29 -69 -29t-70 29q-29 29 -29 69t29 69q29 30 70 30t70 -30q29 -29 29 -69t-30 -69zM354 648q1 31 -25 44t-52 0t-25 -44
q0 -20 15 -35t36 -15t36 15t15 35z" />
    <glyph glyph-name="Uhungarumlaut" unicode="&#x170;" horiz-adv-x="742" 
d="M78 296v404h110v-408q0 -97 49 -149.5t134 -52.5t134.5 52.5t49.5 149.5v408h110v-404q0 -147 -82 -228q-83 -81 -212 -81t-212 80q-81 81 -81 229zM507 762h-99l95 140h135zM302 762h-99l95 140h135z" />
    <glyph glyph-name="uhungarumlaut" unicode="&#x171;" horiz-adv-x="615" 
d="M538 491v-491h-108v65q-72 -78 -180 -78q-87 0 -134.5 54t-47.5 150v300h108v-276q0 -127 115 -127q40 0 79 22.5t60 57.5v323h108zM443 575h-98l95 140h134zM238 575h-99l95 140h135z" />
    <glyph glyph-name="Uogonek" unicode="&#x172;" horiz-adv-x="742" 
d="M386 -13h-15q-129 0 -212 80q-81 81 -81 229v404h110v-408q0 -97 49 -149.5t134 -52.5t134.5 52.5t49.5 149.5v408h110v-404q0 -193 -146 -277q-38 -22 -59 -39q-29 -25 -29 -54q0 -25 17 -40t45 -15q20 0 38 7v-66q-20 -7 -56 -7q-54 0 -87.5 29t-33.5 72q0 44 32 81z
" />
    <glyph glyph-name="uogonek" unicode="&#x173;" horiz-adv-x="616" 
d="M546 -199q-54 0 -87.5 29t-33.5 72q0 54 44 98h-39v65q-72 -78 -180 -78q-87 0 -134.5 54t-47.5 150v300h108v-276q0 -127 115 -127q40 0 79 22.5t60 57.5v323h108v-491q-36 -36 -36 -76q0 -26 17 -41.5t45 -15.5q20 0 38 7v-66q-20 -7 -56 -7z" />
    <glyph glyph-name="Wcircumflex" unicode="&#x174;" horiz-adv-x="1065" 
d="M366 -4h-98l-238 704h123l167 -526l170 527h87l170 -527l167 526h121l-239 -704h-97l-166 521zM366 762l114 140h112l114 -140h-101l-69 85l-69 -85h-101z" />
    <glyph glyph-name="wcircumflex" unicode="&#x175;" horiz-adv-x="836" 
d="M292 -4h-93l-171 495h110l115 -334l114 336h89l116 -336l114 334h109l-172 -495h-94l-119 339zM240 575l114 140h112l114 -140h-101l-69 85l-69 -85h-101z" />
    <glyph glyph-name="Ycircumflex" unicode="&#x176;" horiz-adv-x="684" 
d="M397 0h-110v317l-271 383h128l200 -283l200 283h124l-271 -380v-320zM176 762l114 140h112l114 -140h-101l-69 85l-69 -85h-101z" />
    <glyph glyph-name="ycircumflex" unicode="&#x177;" horiz-adv-x="571" 
d="M127 -205q-61 0 -89 16v95q32 -16 71 -16q41 0 69.5 30t57.5 98l-215 473h120l148 -346l143 346h117l-235 -544q-66 -152 -187 -152zM118 575l114 140h112l114 -140h-101l-69 85l-69 -85h-101z" />
    <glyph glyph-name="Ydieresis" unicode="&#x178;" horiz-adv-x="684" 
d="M397 0h-110v317l-271 383h128l200 -283l200 283h124l-271 -380v-320zM199 788q-18 18 -18 43t18 42q18 18 43 18t42 -18q17 -17 17 -42t-17 -43q-17 -17 -42 -17t-43 17zM406 788q-18 18 -18 43t18 42q18 18 43 18t42 -18q17 -17 17 -42t-17 -43q-17 -17 -42 -17t-43 17z
" />
    <glyph glyph-name="Zacute" unicode="&#x179;" horiz-adv-x="642" 
d="M601 0h-560v78l394 521h-374v101h524v-77l-393 -522h409v-101zM348 762h-99l95 140h135z" />
    <glyph glyph-name="zacute" unicode="&#x17a;" horiz-adv-x="516" 
d="M480 0h-445v72l273 324h-255v95h411v-74l-273 -322h289v-95zM274 575h-98l95 140h135z" />
    <glyph glyph-name="Zdotaccent" unicode="&#x17b;" horiz-adv-x="642" 
d="M601 0h-560v78l394 521h-374v101h524v-77l-393 -522h409v-101zM259 831q0 25 18 43t44 18t44 -17.5t18 -43.5t-18 -44.5t-44 -18.5t-44 18.5t-18 44.5z" />
    <glyph glyph-name="zdotaccent" unicode="&#x17c;" horiz-adv-x="516" 
d="M480 0h-445v72l273 324h-255v95h411v-74l-273 -322h289v-95zM196 648q0 25 18 43t44 18t44 -17.5t18 -43.5t-18 -44t-44 -18t-44 18t-18 44z" />
    <glyph glyph-name="Zcaron" unicode="&#x17d;" horiz-adv-x="642" 
d="M492 902l-114 -140h-112l-114 140h101l69 -85l69 85h101zM601 0h-560v78l394 521h-374v101h524v-77l-393 -522h409v-101z" />
    <glyph glyph-name="zcaron" unicode="&#x17e;" horiz-adv-x="516" 
d="M427 715l-114 -140h-112l-114 140h101l69 -85l69 85h101zM480 0h-445v72l273 324h-255v95h411v-74l-273 -322h289v-95z" />
    <glyph glyph-name="longs" unicode="&#x17f;" horiz-adv-x="375" 
d="M223 536v-536h-108v396h-92v95h92v64q0 71 40 113t114 42q64 0 115 -21v-91q-47 18 -85 18q-76 0 -76 -80z" />
    <glyph glyph-name="florin" unicode="&#x192;" horiz-adv-x="519" 
d="M25 -205q-54 0 -91 19v90q37 -14 70 -14q50 0 82 34t42 98l46 301h-115v92h131l15 95q15 94 67.5 147t141.5 53q53 0 92 -18v-90q-33 14 -71 14q-52 0 -82 -30.5t-41 -97.5l-12 -73h146v-92h-160l-52 -328q-15 -92 -68 -146t-141 -54z" />
    <glyph glyph-name="uni0218" unicode="&#x218;" horiz-adv-x="628" 
d="M308 -13q-160 0 -263 75v119q41 -36 113 -64q72 -27 144 -27q71 0 116.5 28t45.5 76q0 38 -31 65q-12 11 -36 21q-29 14 -96 33l-14 4q-57 16 -91 29q-27 10 -70 35q-72 45 -72 141q0 87 68.5 139t185.5 52q127 0 224 -58v-110q-107 65 -222 65q-70 0 -106.5 -24.5
t-36.5 -64.5q0 -34 41 -63q6 -4 17 -8.5t25 -9.5t20 -7l80 -23q73 -22 128 -52q93 -50 99 -162q0 -97 -77 -153t-192 -56zM297 -251h-82l58 191h108z" />
    <glyph glyph-name="uni0219" unicode="&#x219;" horiz-adv-x="512" 
d="M252 -13q-131 0 -205 50v102q86 -59 200 -59q51 0 79.5 15.5t28.5 42.5q0 24 -30 39q-13 6 -47 15l-61 15q-87 22 -126 56.5t-39 96.5q0 67 55 105.5t153 38.5q113 0 181 -44v-99q-89 50 -177 50q-49 0 -75 -14.5t-26 -39.5q0 -23 31 -39q4 -2 47 -15l57 -12
q168 -37 168 -155q0 -67 -59 -108t-155 -41zM246 -251h-82l58 191h108z" />
    <glyph glyph-name="uni021A" unicode="&#x21a;" horiz-adv-x="639" 
d="M33 599v101h573v-101h-232v-599h-110v599h-231zM286 -251h-82l58 191h108z" />
    <glyph glyph-name="uni021B" unicode="&#x21b;" horiz-adv-x="436" 
d="M128 134v262h-105v95h105v143h108v-143h155v-95h-155v-231q0 -41 19 -60t58 -19t74 18v-93q-35 -24 -109 -24q-70 0 -110 38t-40 109zM248 -251h-82l58 191h108z" />
    <glyph glyph-name="circumflex" unicode="&#x2c6;" horiz-adv-x="536" 
d="M99 575l114 140h112l114 -140h-101l-69 85l-69 -85h-101z" />
    <glyph glyph-name="caron" unicode="&#x2c7;" horiz-adv-x="517" 
d="M410 715l-114 -140h-112l-114 140h101l69 -85l69 85h101z" />
    <glyph glyph-name="uni02C9" unicode="&#x2c9;" horiz-adv-x="510" 
d="M421 610h-332v73h332v-73z" />
    <glyph glyph-name="breve" unicode="&#x2d8;" horiz-adv-x="487" 
d="M244 561q-64 0 -108 42q-45 45 -46 112h80q2 -34 23 -56.5t51 -22.5t51 22.5t23 56.5h79q-1 -69 -46 -112q-43 -42 -107 -42z" />
    <glyph glyph-name="dotaccent" unicode="&#x2d9;" horiz-adv-x="558" 
d="M279 586q-25 0 -43.5 18t-18.5 44q-3 39 38.5 56t67.5 -13q30 -26 13 -67t-57 -38z" />
    <glyph glyph-name="ring" unicode="&#x2da;" horiz-adv-x="547" 
d="M332 579q-29 -29 -69 -29t-70 29q-29 29 -29 69t29 69q29 30 70 30t70 -30q29 -29 29 -69t-30 -69zM314 648q1 31 -25 44t-52 0t-25 -44q0 -20 15 -35t36 -15t36 15t15 35z" />
    <glyph glyph-name="ogonek" unicode="&#x2db;" horiz-adv-x="504" 
d="M305 -195q-54 0 -87.5 29t-33.5 72q0 54 44 98h69q-36 -36 -36 -76q0 -26 17 -41.5t45 -15.5q20 0 38 7v-66q-20 -7 -56 -7z" />
    <glyph glyph-name="tilde" unicode="&#x2dc;" horiz-adv-x="514" 
d="M149 585h-65q1 55 29.5 91.5t72.5 36.5q29 0 72 -25q44 -24 63 -24q34 0 41 46h65q-1 -54 -29.5 -91t-72.5 -37q-29 0 -73 24q-43 25 -63 25q-33 0 -40 -46z" />
    <glyph glyph-name="hungarumlaut" unicode="&#x2dd;" horiz-adv-x="604" 
d="M392 575h-98l95 140h134zM187 575h-99l95 140h135z" />
    <glyph glyph-name="acutecomb" unicode="&#x301;" horiz-adv-x="16" 
d="M-243 575h-98l95 140h135z" />
    <glyph glyph-name="uni037E" unicode="&#x37e;" horiz-adv-x="261" 
d="M93 -152h-85l83 280h124zM152 342q-30 0 -50.5 20.5t-20.5 50.5q0 29 20.5 49.5t50.5 20.5q28 0 49 -20.5t21 -49.5q0 -30 -20.5 -50.5t-49.5 -20.5z" />
    <glyph glyph-name="uni0394" unicode="&#x394;" horiz-adv-x="762" 
d="M740 0h-718l306 700h106zM380 562l-200 -461h400z" />
    <glyph glyph-name="uni03A9" unicode="&#x3a9;" horiz-adv-x="798" 
d="M325 0h-238v101h110q-51 49 -82 122t-31 152q0 142 86 240q87 98 229 98t228 -98q87 -97 87 -240q0 -78 -31.5 -151.5t-82.5 -122.5h111v-101h-238v83q54 42 91 115t37 159q0 112 -56 183q-55 70 -146 70q-90 0 -147 -70q-56 -71 -56 -183q0 -86 37 -159q37 -72 92 -115
v-83z" />
    <glyph glyph-name="uni03BC" unicode="&#x3bc;" horiz-adv-x="624" 
d="M439 168v323h108v-491h-108v65q-71 -78 -168 -78q-50 0 -85 23v-210h-109v691h109v-276q0 -71 33 -99q34 -28 81 -28q40 0 78.5 23t60.5 57z" />
    <glyph glyph-name="pi" unicode="&#x3c0;" horiz-adv-x="696" 
d="M643 396h-98v-245q0 -60 54 -60q24 0 41 10v-93q-31 -16 -80 -16q-57 0 -90 31.5t-33 97.5v275h-201v-396h-108v396h-95v95h610v-95z" />
    <glyph glyph-name="uni0401" unicode="&#x401;" horiz-adv-x="641" 
d="M598 0h-511v700h498v-101h-388v-175h316v-101h-316v-222h401v-101zM190 788q-18 18 -18 43t18 42q18 18 43 18t42 -18q17 -17 17 -42t-17 -43q-17 -17 -42 -17t-43 17zM397 788q-18 18 -18 43t18 42q18 18 43 18t42 -18q17 -17 17 -42t-17 -43q-17 -17 -42 -17t-43 17z
" />
    <glyph glyph-name="uni0402" unicode="&#x402;" horiz-adv-x="769" 
d="M504 -13q-51 0 -96 14v103q42 -14 81 -14q59 0 95.5 32t36.5 84t-43 86t-116 34q-93 0 -166 -37v-289h-110v599h-153v101h505v-101h-242v-203q80 33 180 33q113 0 183 -64q70 -63 70 -163q0 -93 -61 -154t-164 -61z" />
    <glyph glyph-name="uni0403" unicode="&#x403;" horiz-adv-x="613" 
d="M197 0h-110v700h490v-101h-380v-599zM353 762h-99l95 140h135z" />
    <glyph glyph-name="uni0404" unicode="&#x404;" horiz-adv-x="680" 
d="M429 -13q-155 0 -262 105q-105 105 -105 258q0 154 105 258q105 105 261 105q104 0 189 -48v-111q-86 56 -191 56q-89 0 -157 -56q-65 -55 -82 -145h293v-101h-299q13 -96 82 -157q70 -61 166 -61q121 0 203 65v-113q-83 -55 -203 -55z" />
    <glyph glyph-name="uni0405" unicode="&#x405;" horiz-adv-x="628" 
d="M308 -13q-160 0 -263 75v119q41 -36 113 -64q72 -27 144 -27q71 0 116.5 28t45.5 76q0 38 -31 65q-12 11 -36 21q-29 14 -96 33l-14 4q-57 16 -91 29q-27 10 -70 35q-72 45 -72 141q0 87 68.5 139t185.5 52q127 0 224 -58v-110q-107 65 -222 65q-70 0 -106.5 -24.5
t-36.5 -64.5q0 -34 41 -63q6 -4 17 -8.5t25 -9.5t20 -7l80 -23q73 -22 128 -52q93 -50 99 -162q0 -97 -77 -153t-192 -56z" />
    <glyph glyph-name="uni0406" unicode="&#x406;" horiz-adv-x="295" 
d="M202 0h-110v700h110v-700z" />
    <glyph glyph-name="uni0407" unicode="&#x407;" horiz-adv-x="293" 
d="M202 0h-110v700h110v-700zM1 788q-18 18 -18 43t18 42q18 18 43 18t42 -18q17 -17 17 -42t-17 -43q-17 -17 -42 -17t-43 17zM208 788q-18 18 -18 43t18 42q18 18 43 18t42 -18q17 -17 17 -42t-17 -43q-17 -17 -42 -17t-43 17z" />
    <glyph glyph-name="uni0408" unicode="&#x408;" horiz-adv-x="509" 
d="M196 -13q-102 0 -164 43v109q59 -49 143 -49q73 0 109 36.5t36 113.5v460h110v-478q0 -119 -61.5 -177t-172.5 -58z" />
    <glyph glyph-name="uni0409" unicode="&#x409;" horiz-adv-x="1106" 
d="M804 0h-281v599h-241l-3 -150q-4 -227 -49 -337q-47 -115 -177 -115q-26 0 -43 5v100q13 -4 37 -4q77 0 101 99q25 99 25 332l3 171h457v-242h171q122 0 192 -64t70 -166q0 -100 -71 -165q-70 -63 -191 -63zM633 357v-256h165q74 0 115 33.5t41 93.5q0 61 -41.5 95
t-114.5 34h-165z" />
    <glyph glyph-name="uni040A" unicode="&#x40a;" horiz-adv-x="1125" 
d="M824 0h-282v352h-345v-352h-110v700h110v-247h345v247h110v-247h172q120 0 191 -63q70 -63 70 -164q0 -100 -70 -163q-71 -63 -191 -63zM652 352v-251h170q71 0 111.5 33t40.5 91q0 60 -40.5 93.5t-111.5 33.5h-170z" />
    <glyph glyph-name="uni040B" unicode="&#x40b;" horiz-adv-x="791" 
d="M296 291v-291h-110v599h-153v101h505v-101h-242v-201q80 31 180 31q253 0 253 -221v-208h-110v185q0 77 -37.5 109t-122.5 32t-163 -35z" />
    <glyph glyph-name="uni040C" unicode="&#x40c;" horiz-adv-x="682" 
d="M197 0h-110v700h110v-286l287 286h141l-324 -320l376 -380h-150l-330 336v-336zM367 762h-99l95 140h135z" />
    <glyph glyph-name="uni040E" unicode="&#x40e;" horiz-adv-x="659" 
d="M182 -13q-66 0 -99 16v104q39 -17 80 -17q42 0 70 22q27 22 61 92l-274 496h124l207 -379l172 379h118l-258 -550q-76 -163 -201 -163zM330 741q-79 0 -128 45t-50 120h92q0 -37 23 -59.5t62 -22.5t62 23t24 59h92q-1 -75 -50.5 -120t-126.5 -45z" />
    <glyph glyph-name="uni040F" unicode="&#x40f;" horiz-adv-x="738" 
d="M421 -150h-105v150h-229v700h110v-599h344v599h110v-700h-230v-150z" />
    <glyph glyph-name="uni0410" unicode="&#x410;" horiz-adv-x="762" 
d="M139 0h-117l306 704h106l306 -704h-118l-76 174h-332zM380 565l-128 -294h256z" />
    <glyph glyph-name="uni0411" unicode="&#x411;" horiz-adv-x="692" 
d="M383 0h-296v700h494v-101h-384v-148h186q119 0 188 -63q69 -62 69 -163q0 -102 -69 -163q-68 -62 -188 -62zM197 350v-249h176q74 0 114.5 32.5t40.5 91.5t-41 92t-114 33h-176z" />
    <glyph glyph-name="uni0412" unicode="&#x412;" horiz-adv-x="721" 
d="M431 0h-344v700h318q95 0 150.5 -46t55.5 -126q0 -52 -26 -90t-67 -54q66 -12 107.5 -62t41.5 -125q0 -89 -64 -143q-63 -54 -172 -54zM197 321v-220h214q64 0 100.5 29.5t36.5 82.5q0 52 -36 80t-101 28h-214zM197 599v-181h189q55 0 85.5 23.5t30.5 67.5t-30.5 67
t-85.5 23h-189z" />
    <glyph glyph-name="uni0413" unicode="&#x413;" horiz-adv-x="613" 
d="M197 0h-110v700h490v-101h-380v-599z" />
    <glyph glyph-name="uni0414" unicode="&#x414;" horiz-adv-x="783" 
d="M118 -150h-104v251h67q55 83 81 195q26 115 26 307v97h463v-599h101v-251h-104v150h-530v-150zM201 101h340v498h-246q0 -175 -21 -294q-21 -120 -73 -204z" />
    <glyph glyph-name="uni0415" unicode="&#x415;" horiz-adv-x="641" 
d="M598 0h-511v700h498v-101h-388v-175h316v-101h-316v-222h401v-101z" />
    <glyph glyph-name="uni0416" unicode="&#x416;" horiz-adv-x="1012" 
d="M154 0h-144l333 366l-291 334h136l262 -299v299h110v-299l263 299h138l-294 -334l335 -366h-144l-298 321v-321h-110v322z" />
    <glyph glyph-name="uni0417" unicode="&#x417;" horiz-adv-x="628" 
d="M285 -13q-147 0 -245 60v108q46 -29 108.5 -47t120.5 -18q89 0 140.5 33.5t51.5 89.5q0 49 -47 79t-124 30h-87v101h100q64 0 99 25t35 69t-40.5 68.5t-110.5 24.5q-112 0 -216 -51v101q103 53 222 53q114 0 184 -52t70 -138q0 -57 -34 -94t-75 -51q55 -16 96 -62
q41 -44 41 -112q0 -94 -78 -156q-77 -61 -211 -61z" />
    <glyph glyph-name="uni0418" unicode="&#x418;" horiz-adv-x="765" 
d="M181 0h-94v700h110v-514l385 514h96v-700h-110v516z" />
    <glyph glyph-name="uni0419" unicode="&#x419;" horiz-adv-x="765" 
d="M181 0h-94v700h110v-514l385 514h96v-700h-110v516zM382 741q-79 0 -128 45t-50 120h92q0 -37 23 -59.5t62 -22.5t62 23t24 59h92q-1 -75 -50.5 -120t-126.5 -45z" />
    <glyph glyph-name="uni041A" unicode="&#x41a;" horiz-adv-x="682" 
d="M197 0h-110v700h110v-286l287 286h141l-324 -320l376 -380h-150l-330 336v-336z" />
    <glyph glyph-name="uni041B" unicode="&#x41b;" horiz-adv-x="729" 
d="M10 2v100q13 -4 37 -4q74 0 98 92q24 79 28 270l3 240h466v-700h-110v599h-250l-3 -150q-4 -227 -49 -337q-47 -115 -177 -115q-26 0 -43 5z" />
    <glyph glyph-name="uni041C" unicode="&#x41c;" horiz-adv-x="848" 
d="M197 0h-110v700h112l227 -315l225 315h110v-700h-110v532l-195 -264h-64l-195 264v-532z" />
    <glyph glyph-name="uni041D" unicode="&#x41d;" horiz-adv-x="759" 
d="M197 0h-110v700h110v-276h365v276h110v-700h-110v323h-365v-323z" />
    <glyph glyph-name="uni041E" unicode="&#x41e;" horiz-adv-x="839" 
d="M245 164q71 -74 174 -74t174 74q71 76 71 186q0 111 -71 185q-71 75 -174 75t-174 -75q-70 -73 -70 -185t70 -186zM675 91q-102 -104 -256 -104t-256 104q-101 106 -101 259q0 154 101 258q102 105 256 105t256 -105q102 -104 102 -258t-102 -259z" />
    <glyph glyph-name="uni041F" unicode="&#x41f;" horiz-adv-x="743" 
d="M197 0h-110v700h569v-700h-110v599h-349v-599z" />
    <glyph glyph-name="uni0420" unicode="&#x420;" horiz-adv-x="662" 
d="M197 0h-110v700h301q110 0 171 -57q63 -55 63 -146t-63 -150q-61 -58 -171 -58h-191v-289zM197 599v-209h182q62 0 97 27.5t35 77.5t-34.5 77t-97.5 27h-182z" />
    <glyph glyph-name="uni0421" unicode="&#x421;" horiz-adv-x="684" 
d="M431 -13q-157 0 -264 102q-105 103 -105 261t105 260q104 103 264 103q107 0 190 -47v-111q-85 55 -189 55q-110 0 -184 -74q-73 -73 -73 -186t74 -187q74 -73 187 -73q120 0 200 64v-111q-88 -56 -205 -56z" />
    <glyph glyph-name="uni0422" unicode="&#x422;" horiz-adv-x="639" 
d="M33 599v101h573v-101h-232v-599h-110v599h-231z" />
    <glyph glyph-name="uni0423" unicode="&#x423;" horiz-adv-x="659" 
d="M182 -13q-66 0 -99 16v104q39 -17 80 -17q42 0 70 22q27 22 61 92l-274 496h124l207 -379l172 379h118l-258 -550q-76 -163 -201 -163z" />
    <glyph glyph-name="uni0424" unicode="&#x424;" horiz-adv-x="919" 
d="M514 -24h-110v77q-166 4 -254 91t-88 210q0 58 21 110.5t61.5 95t107.5 69t152 28.5v66h110v-66q85 -2 152 -28t108 -68.5t62 -95t21 -110.5t-21 -110.5t-62 -95t-108 -68.5t-152 -28v-77zM404 150v410q-113 -1 -172 -60q-57 -58 -57 -145t57 -146q57 -57 172 -59z
M514 560v-410q115 2 172 59q58 58 58 146q0 87 -58 145q-59 59 -172 60z" />
    <glyph glyph-name="uni0425" unicode="&#x425;" horiz-adv-x="717" 
d="M145 0h-128l277 379l-233 321h130l169 -232l169 232h128l-234 -319l278 -381h-131l-212 291z" />
    <glyph glyph-name="uni0426" unicode="&#x426;" horiz-adv-x="783" 
d="M752 -150h-104v150h-561v700h110v-599h344v599h110v-599h101v-251z" />
    <glyph glyph-name="uni0427" unicode="&#x427;" horiz-adv-x="691" 
d="M604 0h-110v293q-84 -31 -180 -31q-252 0 -252 222v216h110v-194q0 -77 38 -109t121 -32q88 0 163 35v300h110v-700z" />
    <glyph glyph-name="uni0428" unicode="&#x428;" horiz-adv-x="1026" 
d="M939 0h-852v700h110v-599h261v599h110v-599h261v599h110v-700z" />
    <glyph glyph-name="uni0429" unicode="&#x429;" horiz-adv-x="1071" 
d="M937 0h-850v700h110v-599h261v599h110v-599h261v599h110v-599h101v-251h-103v150z" />
    <glyph glyph-name="uni042A" unicode="&#x42a;" horiz-adv-x="797" 
d="M495 0h-291v599h-185v101h295v-242h181q122 0 192 -64t70 -166q0 -100 -71 -165q-70 -63 -191 -63zM314 357v-256h175q74 0 115 33.5t41 93.5q0 61 -41.5 95t-114.5 34h-175z" />
    <glyph glyph-name="uni042B" unicode="&#x42b;" horiz-adv-x="908" 
d="M821 0h-110v700h110v-700zM354 0h-267v700h110v-242h157q122 0 192 -64t70 -166q0 -100 -71 -165q-71 -63 -191 -63zM197 357v-256h151q74 0 115 33.5t41 93.5q0 61 -41.5 95t-114.5 34h-151z" />
    <glyph glyph-name="uni042C" unicode="&#x42c;" horiz-adv-x="680" 
d="M378 0h-291v700h110v-242h181q122 0 192 -64t70 -166q0 -100 -71 -165q-71 -63 -191 -63zM197 357v-256h175q74 0 115 33.5t41 93.5q0 61 -41.5 95t-114.5 34h-175z" />
    <glyph glyph-name="uni042D" unicode="&#x42d;" horiz-adv-x="680" 
d="M251 -13q-120 0 -203 55v113q82 -65 203 -65q97 0 165 61q69 61 83 157h-299v101h293q-17 91 -83 145q-67 56 -156 56q-105 0 -191 -56v111q85 48 189 48q156 0 261 -105q105 -104 105 -258q0 -153 -106 -258q-105 -105 -261 -105z" />
    <glyph glyph-name="uni042E" unicode="&#x42e;" horiz-adv-x="1046" 
d="M651 713q143 0 238 -105q95 -106 95 -258t-95 -258q-95 -105 -238 -105q-133 0 -225 89q-92 91 -107 228h-122v-304h-110v700h110v-295h123q16 133 109 221q91 87 222 87zM651 90q95 0 157 71q63 72 63 189q0 118 -63 188q-61 72 -157 72t-159 -72q-62 -71 -62 -188
q0 -116 62 -189q63 -71 159 -71z" />
    <glyph glyph-name="uni042F" unicode="&#x42f;" horiz-adv-x="734" 
d="M162 0h-133l223 308q-74 17 -115 68.5t-41 124.5q0 91 62.5 145t169.5 54h319v-700h-110v296h-164zM333 393h204v206h-204q-59 0 -92.5 -27.5t-33.5 -75.5q0 -49 33.5 -76t92.5 -27z" />
    <glyph glyph-name="uni0430" unicode="&#x430;" horiz-adv-x="597" 
d="M538 84q16 0 29 7v-82q-22 -16 -63 -16q-84 0 -103 70q-67 -76 -181 -76q-79 0 -132 44q-52 43 -52 121t57 120q56 43 140 43q89 0 157 -38v27q0 107 -144 107q-84 0 -155 -44v95q73 42 179 42q104 0 165.5 -49.5t61.5 -138.5v-183q0 -23 11.5 -36t29.5 -13zM390 139v60
q-62 35 -131 35q-54 0 -84.5 -20t-30.5 -56q0 -38 28.5 -58t77.5 -20q40 0 78 16.5t62 42.5z" />
    <glyph glyph-name="uni0431" unicode="&#x431;" horiz-adv-x="611" 
d="M317 -13q-127 0 -198 87q-70 88 -70 236q0 163 76 252q35 42 96 72q63 31 128 47q67 17 165 33v-100q-160 -30 -202 -45q-112 -38 -146 -119q-15 -34 -18 -83q31 45 83.5 71t115.5 26q95 0 159 -62q63 -62 63 -162q0 -113 -73 -183q-71 -70 -179 -70zM317 82q63 0 103 42
q41 43 41 108q0 62 -39.5 100.5t-100.5 38.5q-50 0 -95.5 -28t-70.5 -71q4 -90 46 -140t116 -50z" />
    <glyph glyph-name="uni0432" unicode="&#x432;" horiz-adv-x="581" 
d="M360 0h-283v491h268q72 0 113 -34.5t41 -90.5q0 -36 -17.5 -64.5t-45.5 -41.5q96 -28 96 -126q0 -63 -45.5 -98.5t-126.5 -35.5zM185 208v-121h156q38 0 59.5 16t21.5 44q0 29 -21.5 45t-59.5 16h-156zM185 404v-109h134q35 0 54.5 14.5t19.5 39.5q0 55 -74 55h-134z" />
    <glyph glyph-name="uni0433" unicode="&#x433;" horiz-adv-x="485" 
d="M185 0h-108v491h380v-95h-272v-396z" />
    <glyph glyph-name="uni0434" unicode="&#x434;" horiz-adv-x="663" 
d="M125 -135h-104v230h64q39 59 54 145q15 83 17 251h391v-396h85v-230h-102v135h-405v-135zM199 95h240v301h-184q0 -191 -56 -301z" />
    <glyph glyph-name="uni0435" unicode="&#x435;" horiz-adv-x="572" 
d="M42 246q0 111 70 184q71 74 182 74q76 0 129 -40q104 -74 104 -222v-28h-376q10 -62 59.5 -97t125.5 -35q84 0 158 44v-91q-68 -48 -181 -48t-193 72q-78 72 -78 187zM152 296h266q-2 46 -35 81q-34 36 -94 36q-57 0 -94.5 -33.5t-42.5 -83.5z" />
    <glyph glyph-name="uni0436" unicode="&#x436;" horiz-adv-x="815" 
d="M160 0h-133l234 263l-206 228h127l172 -192v192h108v-192l172 192h127l-208 -228l236 -263h-134l-193 219v-219h-108v219z" />
    <glyph glyph-name="uni0437" unicode="&#x437;" horiz-adv-x="528" 
d="M242 -13q-112 0 -187 35v98q84 -40 172 -40q64 0 101 18.5t37 52.5q0 62 -108 62h-91v87h91q92 0 92 54q0 57 -119 57q-78 0 -161 -36v95q75 34 184 34q90 0 148 -37q59 -38 59 -95q0 -81 -75 -108q94 -30 94 -121q0 -69 -65 -113q-64 -43 -172 -43z" />
    <glyph glyph-name="uni0438" unicode="&#x438;" horiz-adv-x="628" 
d="M178 0h-101v491h108v-333l265 333h101v-491h-108v334z" />
    <glyph glyph-name="uni0439" unicode="&#x439;" horiz-adv-x="628" 
d="M178 0h-101v491h108v-333l265 333h101v-491h-108v334zM314 557q-76 0 -124 45t-49 120h91q0 -36 22.5 -59t58.5 -23t58.5 23t23.5 59h92q-1 -75 -49 -120t-124 -45z" />
    <glyph glyph-name="uni043A" unicode="&#x43a;" horiz-adv-x="571" 
d="M185 0h-108v491h108v-186l194 186h138l-233 -220l268 -271h-148l-219 222v-222z" />
    <glyph glyph-name="uni043B" unicode="&#x43b;" horiz-adv-x="618" 
d="M433 396h-185l-2 -71q-1 -106 -22 -182q-35 -140 -169 -145q-21 0 -34 4v93q11 -3 22 -3q53 0 75 54.5t24 184.5l3 160h396v-491h-108v396z" />
    <glyph glyph-name="uni043C" unicode="&#x43c;" horiz-adv-x="703" 
d="M181 0h-104v491h106l168 -204l169 204h106v-491h-104v344l-150 -181h-42l-149 181v-344z" />
    <glyph glyph-name="uni043D" unicode="&#x43d;" horiz-adv-x="619" 
d="M185 0h-108v491h108v-192h249v192h108v-491h-108v204h-249v-204z" />
    <glyph glyph-name="uni043E" unicode="&#x43e;" horiz-adv-x="623" 
d="M312 82q68 0 115 47q46 46 46 117q0 70 -46 116q-47 47 -115 47q-69 0 -116 -47q-46 -46 -46 -116q0 -71 46 -117q47 -47 116 -47zM312 -13q-118 0 -194 75t-76 184q0 108 76 183t194 75q116 0 193 -75q76 -75 76 -183t-76 -184q-77 -75 -193 -75z" />
    <glyph glyph-name="uni043F" unicode="&#x43f;" horiz-adv-x="612" 
d="M185 0h-108v491h458v-491h-108v396h-242v-396z" />
    <glyph glyph-name="uni0440" unicode="&#x440;" horiz-adv-x="640" 
d="M360 504q104 0 171 -75q67 -74 67 -184q0 -109 -67 -183q-67 -75 -171 -75q-113 0 -175 80v-267h-108v691h108v-67q62 80 175 80zM331 409q-47 0 -86 -24.5t-60 -63.5v-152q21 -38 60.5 -62.5t85.5 -24.5q68 0 113 47q45 48 45 116q0 69 -45 116q-45 48 -113 48z" />
    <glyph glyph-name="uni0441" unicode="&#x441;" horiz-adv-x="520" 
d="M307 -13q-111 0 -188 73q-77 74 -77 187t77 185q78 72 189 72q84 0 148 -34v-93q-67 32 -132 32q-74 0 -124 -46q-50 -47 -50 -117q0 -71 50 -118q50 -46 124 -46q79 0 140 37v-92q-70 -40 -157 -40z" />
    <glyph glyph-name="uni0442" unicode="&#x442;" horiz-adv-x="480" 
d="M294 0h-108v396h-166v95h439v-95h-165v-396z" />
    <glyph glyph-name="uni0443" unicode="&#x443;" horiz-adv-x="571" 
d="M127 -205q-61 0 -89 16v95q32 -16 71 -16q41 0 69.5 30t57.5 98l-215 473h120l148 -346l143 346h117l-235 -544q-66 -152 -187 -152z" />
    <glyph glyph-name="uni0444" unicode="&#x444;" horiz-adv-x="746" 
d="M427 -200h-108v192q-131 5 -203 74q-74 71 -74 180q0 110 73.5 178t203.5 75v201h108v-201q130 -7 203.5 -75t73.5 -178q0 -109 -74 -180q-72 -69 -203 -74v-192zM319 83v325q-76 -1 -124 -45.5t-48 -116.5q0 -73 48 -118t124 -45zM427 408v-325q76 0 124 45t48 118
q0 72 -48 116.5t-124 45.5z" />
    <glyph glyph-name="uni0445" unicode="&#x445;" horiz-adv-x="578" 
d="M45 491h125l116 -152l117 152h123l-178 -232l198 -259h-125l-137 179l-137 -179h-122l198 257z" />
    <glyph glyph-name="uni0446" unicode="&#x446;" horiz-adv-x="652" 
d="M621 -135h-105v135h-439v491h108v-396h242v396h108v-396h86v-230z" />
    <glyph glyph-name="uni0447" unicode="&#x447;" horiz-adv-x="571" 
d="M494 0h-108v177q-57 -23 -129 -23q-104 0 -154 49.5t-50 163.5v124h108v-115q0 -71 25.5 -99.5t88.5 -28.5q62 0 111 25v218h108v-491z" />
    <glyph glyph-name="uni0448" unicode="&#x448;" horiz-adv-x="844" 
d="M767 0h-690v491h108v-396h183v396h108v-396h183v396h108v-491z" />
    <glyph glyph-name="uni0449" unicode="&#x449;" horiz-adv-x="884" 
d="M748 0h-671v491h108v-396h183v396h108v-396h183v396h108v-396h86v-230h-105v135z" />
    <glyph glyph-name="uni044A" unicode="&#x44a;" horiz-adv-x="648" 
d="M413 0h-254v396h-144v95h252v-149h141q90 0 144 -46.5t54 -124.5q0 -73 -51 -123q-51 -48 -142 -48zM267 251v-160h129q47 0 74 21.5t27 58.5q0 38 -26.5 59t-74.5 21h-129z" />
    <glyph glyph-name="uni044B" unicode="&#x44b;" horiz-adv-x="756" 
d="M679 0h-108v491h108v-491zM309 0h-232v491h108v-149h119q90 0 144 -46.5t54 -124.5q0 -73 -51 -123q-51 -48 -142 -48zM185 251v-160h107q47 0 74 21.5t27 58.5q0 38 -26.5 59t-74.5 21h-107z" />
    <glyph glyph-name="uni044C" unicode="&#x44c;" horiz-adv-x="566" 
d="M331 0h-254v491h108v-149h141q90 0 144 -46.5t54 -124.5q0 -73 -51 -123q-51 -48 -142 -48zM185 251v-160h129q47 0 74 21.5t27 58.5q0 38 -26.5 59t-74.5 21h-129z" />
    <glyph glyph-name="uni044D" unicode="&#x44d;" horiz-adv-x="516" 
d="M210 -13q-88 0 -156 39v94q65 -38 139 -38q66 0 113.5 33.5t56.5 88.5h-207v87h207q-12 55 -58 86.5t-112 31.5q-68 0 -129 -32v94q64 33 146 33q110 0 187 -72t77 -185t-77 -187q-76 -73 -187 -73z" />
    <glyph glyph-name="uni044E" unicode="&#x44e;" horiz-adv-x="822" 
d="M529 -13q-99 0 -166 60q-66 60 -80 156h-98v-203h-108v491h108v-193h100q15 90 82 148t162 58q109 0 180 -75q71 -74 71 -183t-71 -185q-71 -74 -180 -74zM673 246q0 70 -40 116q-41 47 -104 47q-64 0 -105 -47q-40 -46 -40 -116q0 -71 40 -117q41 -47 105 -47
q63 0 104 47q40 46 40 117z" />
    <glyph glyph-name="uni044F" unicode="&#x44f;" horiz-adv-x="585" 
d="M159 0h-124l139 191q-52 13 -80.5 51t-28.5 94q0 71 47.5 113t137.5 42h258v-491h-108v169h-119zM265 256h135v148h-135q-43 0 -66.5 -19.5t-23.5 -54.5t23.5 -54.5t66.5 -19.5z" />
    <glyph glyph-name="uni0451" unicode="&#x451;" horiz-adv-x="572" 
d="M42 246q0 111 70 184q71 74 182 74q76 0 129 -40q104 -74 104 -222v-28h-376q10 -62 59.5 -97t125.5 -35q84 0 158 44v-91q-68 -48 -181 -48t-193 72q-78 72 -78 187zM152 296h266q-2 46 -35 81q-34 36 -94 36q-57 0 -94.5 -33.5t-42.5 -83.5zM144 593q-18 18 -18 43
t18 42q18 18 43 18t42 -18q17 -17 17 -42t-17 -43q-17 -17 -42 -17t-43 17zM351 593q-18 18 -18 43t18 42q18 18 43 18t42 -18q17 -17 17 -42t-17 -43q-17 -17 -42 -17t-43 17z" />
    <glyph glyph-name="uni0452" unicode="&#x452;" horiz-adv-x="654" 
d="M587 248v-283q0 -82 -43.5 -126t-119.5 -44q-63 0 -98 20v94q32 -19 72 -19q81 0 81 87v247q0 71 -34 99t-81 28q-40 0 -79 -22.5t-60 -57.5v-271h-108v537h-102v87h102v76h108v-76h151v-87h-151v-163q72 78 180 78q87 0 134.5 -54t47.5 -150z" />
    <glyph glyph-name="uni0453" unicode="&#x453;" horiz-adv-x="485" 
d="M185 0h-108v491h380v-95h-272v-396zM280 575h-98l95 140h135z" />
    <glyph glyph-name="uni0454" unicode="&#x454;" horiz-adv-x="518" 
d="M306 -13q-111 0 -187 73q-77 74 -77 187t77 185t187 72q82 0 146 -33v-94q-61 32 -129 32q-66 0 -112 -31.5t-58 -86.5h207v-87h-207q9 -55 56.5 -88.5t113.5 -33.5q74 0 139 38v-94q-68 -39 -156 -39z" />
    <glyph glyph-name="uni0455" unicode="&#x455;" horiz-adv-x="512" 
d="M252 -13q-131 0 -205 50v102q86 -59 200 -59q51 0 79.5 15.5t28.5 42.5q0 24 -30 39q-13 6 -47 15l-61 15q-87 22 -126 56.5t-39 96.5q0 67 55 105.5t153 38.5q113 0 181 -44v-99q-89 50 -177 50q-49 0 -75 -14.5t-26 -39.5q0 -23 31 -39q4 -2 47 -15l57 -12
q168 -37 168 -155q0 -67 -59 -108t-155 -41z" />
    <glyph glyph-name="uni0456" unicode="&#x456;" horiz-adv-x="280" 
d="M194 0h-108v491h108v-491zM140 579q-29 0 -48.5 19.5t-19.5 48.5t19.5 49t48.5 20q28 0 47.5 -20t19.5 -49t-19.5 -48.5t-47.5 -19.5z" />
    <glyph glyph-name="uni0457" unicode="&#x457;" horiz-adv-x="281" 
d="M-5 605q-18 18 -18 43t18 42q18 18 43 18t42 -18q17 -17 17 -42t-17 -43q-17 -17 -42 -17t-43 17zM202 605q-18 18 -18 43t18 42q18 18 43 18t42 -18q17 -17 17 -42t-17 -43q-17 -17 -42 -17t-43 17zM195 0h-109v491h109v-491z" />
    <glyph glyph-name="uni0458" unicode="&#x458;" horiz-adv-x="280" 
d="M31 -205q-63 0 -98 20v94q32 -19 72 -19q81 0 81 87v514h108v-526q0 -82 -43.5 -126t-119.5 -44zM187 598q-19 -19 -48 -19t-49 19q-19 20 -19 49t19 49q20 20 49 20t48 -20q20 -20 20 -49t-20 -49z" />
    <glyph glyph-name="uni0459" unicode="&#x459;" horiz-adv-x="900" 
d="M665 0h-241v396h-176l-2 -71q-1 -106 -22 -182q-35 -140 -169 -145q-21 0 -34 4v93q11 -3 22 -3q53 0 75 54.5t24 184.5l3 160h387v-149h128q90 0 144 -46.5t54 -124.5q0 -73 -51 -123q-51 -48 -142 -48zM532 251v-160h116q47 0 74 21.5t27 58.5q0 38 -26.5 59t-74.5 21
h-116z" />
    <glyph glyph-name="uni045A" unicode="&#x45a;" horiz-adv-x="896" 
d="M661 0h-241v204h-235v-204h-108v491h108v-192h235v192h108v-149h128q90 0 144 -46.5t54 -124.5q0 -73 -51 -123q-51 -48 -142 -48zM528 251v-160h116q47 0 74 21.5t27 58.5q0 38 -26.5 59t-74.5 21h-116z" />
    <glyph glyph-name="uni045B" unicode="&#x45b;" horiz-adv-x="654" 
d="M225 271v-271h-108v537h-102v87h102v76h108v-76h151v-87h-151v-163q72 78 180 78q87 0 134.5 -54t47.5 -150v-248h-108v224q0 71 -34 99t-81 28q-40 0 -79 -22.5t-60 -57.5z" />
    <glyph glyph-name="uni045C" unicode="&#x45c;" horiz-adv-x="571" 
d="M185 0h-108v491h108v-186l194 186h138l-233 -220l268 -271h-148l-219 222v-222zM324 575h-98l95 140h135z" />
    <glyph glyph-name="uni045E" unicode="&#x45e;" horiz-adv-x="571" 
d="M127 -205q-61 0 -89 16v95q32 -16 71 -16q41 0 69.5 30t57.5 98l-215 473h120l148 -346l143 346h117l-235 -544q-66 -152 -187 -152zM289 557q-76 0 -124 45t-49 120h91q0 -36 22.5 -59t58.5 -23t58.5 23t23.5 59h92q-1 -75 -49 -120t-124 -45z" />
    <glyph glyph-name="uni045F" unicode="&#x45f;" horiz-adv-x="612" 
d="M358 -135h-105v135h-176v491h108v-396h242v396h108v-491h-177v-135z" />
    <glyph glyph-name="uni0490" unicode="&#x490;" horiz-adv-x="613" 
d="M197 0h-110v700h390v142h100v-243h-380v-599z" />
    <glyph glyph-name="uni0491" unicode="&#x491;" horiz-adv-x="485" 
d="M185 0h-108v491h280v128h100v-223h-272v-396z" />
    <glyph glyph-name="uni1E02" unicode="&#x1e02;" horiz-adv-x="721" 
d="M431 0h-344v700h318q95 0 150.5 -46t55.5 -126q0 -52 -26 -90t-67 -54q66 -12 107.5 -62t41.5 -125q0 -89 -64 -143q-63 -54 -172 -54zM197 321v-220h214q64 0 100.5 29.5t36.5 82.5q0 52 -36 80t-101 28h-214zM197 599v-181h189q55 0 85.5 23.5t30.5 67.5t-30.5 67
t-85.5 23h-189zM276 831q0 25 18 43t44 18t44 -17.5t18 -43.5t-18 -44.5t-44 -18.5t-44 18.5t-18 44.5z" />
    <glyph glyph-name="uni1E03" unicode="&#x1e03;" horiz-adv-x="640" 
d="M360 -13q-113 0 -175 80v-67h-108v700h108v-276q62 80 175 80q104 0 171 -75q67 -74 67 -183q0 -110 -67 -184q-67 -75 -171 -75zM331 82q68 0 113 47q45 48 45 117q0 68 -45 115q-45 48 -113 48q-46 0 -85.5 -24.5t-60.5 -62.5v-152q21 -39 60 -63.5t86 -24.5zM266 831
q0 25 18 43t44 18t44 -17.5t18 -43.5t-18 -44.5t-44 -18.5t-44 18.5t-18 44.5z" />
    <glyph glyph-name="uni1E0A" unicode="&#x1e0a;" horiz-adv-x="778" 
d="M334 0h-247v700h247q168 0 275 -98t107 -252q0 -155 -107 -253q-106 -97 -275 -97zM197 599v-498h127q132 0 205 67q74 68 74 182t-74 182q-73 67 -205 67h-127zM287 831q0 25 18 43t44 18t44 -17.5t18 -43.5t-18 -44.5t-44 -18.5t-44 18.5t-18 44.5z" />
    <glyph glyph-name="uni1E0B" unicode="&#x1e0b;" horiz-adv-x="640" 
d="M280 -13q-104 0 -171 75q-67 74 -67 184q0 109 67 183q67 75 171 75q113 0 175 -80v276h108v-700h-108v67q-62 -80 -175 -80zM309 82q47 0 86 24.5t60 63.5v152q-21 38 -60.5 62.5t-85.5 24.5q-68 0 -113 -48q-45 -47 -45 -115q0 -69 45 -117q45 -47 113 -47zM265 831
q0 25 18 43t44 18t44 -17.5t18 -43.5t-18 -44.5t-44 -18.5t-44 18.5t-18 44.5z" />
    <glyph glyph-name="uni1E1E" unicode="&#x1e1e;" horiz-adv-x="625" 
d="M197 0h-110v700h497v-101h-387v-183h307v-101h-307v-315zM273 831q0 25 18 43t44 18t44 -17.5t18 -43.5t-18 -44.5t-44 -18.5t-44 18.5t-18 44.5z" />
    <glyph glyph-name="uni1E1F" unicode="&#x1e1f;" horiz-adv-x="409" 
d="M115 0v396h-92v95h92v64q0 71 40 113t114 42q64 0 115 -21v-91q-47 18 -85 18q-76 0 -76 -80v-45h161v-95h-161v-396h-108zM189 831q0 25 18 43t44 18t44 -17.5t18 -43.5t-18 -44.5t-44 -18.5t-44 18.5t-18 44.5z" />
    <glyph glyph-name="uni1E40" unicode="&#x1e40;" horiz-adv-x="848" 
d="M197 0h-110v700h112l227 -315l225 315h110v-700h-110v532l-195 -264h-64l-195 264v-532zM362 831q0 25 18 43t44 18t44 -17.5t18 -43.5t-18 -44.5t-44 -18.5t-44 18.5t-18 44.5z" />
    <glyph glyph-name="uni1E41" unicode="&#x1e41;" horiz-adv-x="922" 
d="M185 0h-108v491h108v-64q56 77 162 77q57 0 98 -24t57 -64q27 40 74.5 64t104.5 24q82 0 128 -51t46 -146v-307h-108v282q0 121 -100 121q-39 0 -74.5 -23.5t-51.5 -58.5v-321h-108v282q0 121 -101 121q-38 0 -73.5 -22.5t-53.5 -56.5v-324zM404 648q0 25 18 43t44 18
t44 -17.5t18 -43.5t-18 -44t-44 -18t-44 18t-18 44z" />
    <glyph glyph-name="uni1E56" unicode="&#x1e56;" horiz-adv-x="662" 
d="M197 0h-110v700h301q110 0 171 -57q63 -55 63 -146t-63 -150q-61 -58 -171 -58h-191v-289zM197 599v-209h182q62 0 97 27.5t35 77.5t-34.5 77t-97.5 27h-182zM271 831q0 25 18 43t44 18t44 -17.5t18 -43.5t-18 -44.5t-44 -18.5t-44 18.5t-18 44.5z" />
    <glyph glyph-name="uni1E57" unicode="&#x1e57;" horiz-adv-x="640" 
d="M360 504q104 0 171 -75q67 -74 67 -184q0 -109 -67 -183q-67 -75 -171 -75q-113 0 -175 80v-267h-108v691h108v-67q62 80 175 80zM331 409q-47 0 -86 -24.5t-60 -63.5v-152q21 -38 60.5 -62.5t85.5 -24.5q68 0 113 47q45 48 45 116q0 69 -45 116q-45 48 -113 48zM270 648
q0 25 18 43t44 18t44 -17.5t18 -43.5t-18 -44t-44 -18t-44 18t-18 44z" />
    <glyph glyph-name="uni1E60" unicode="&#x1e60;" horiz-adv-x="628" 
d="M308 -13q-160 0 -263 75v119q41 -36 113 -64q72 -27 144 -27q71 0 116.5 28t45.5 76q0 38 -31 65q-12 11 -36 21q-29 14 -96 33l-14 4q-57 16 -91 29q-27 10 -70 35q-72 45 -72 141q0 87 68.5 139t185.5 52q127 0 224 -58v-110q-107 65 -222 65q-70 0 -106.5 -24.5
t-36.5 -64.5q0 -34 41 -63q6 -4 17 -8.5t25 -9.5t20 -7l80 -23q73 -22 128 -52q93 -50 99 -162q0 -97 -77 -153t-192 -56zM240 831q0 25 18 43t44 18t44 -17.5t18 -43.5t-18 -44.5t-44 -18.5t-44 18.5t-18 44.5z" />
    <glyph glyph-name="uni1E61" unicode="&#x1e61;" horiz-adv-x="512" 
d="M252 -13q-131 0 -205 50v102q86 -59 200 -59q51 0 79.5 15.5t28.5 42.5q0 24 -30 39q-13 6 -47 15l-61 15q-87 22 -126 56.5t-39 96.5q0 67 55 105.5t153 38.5q113 0 181 -44v-99q-89 50 -177 50q-49 0 -75 -14.5t-26 -39.5q0 -23 31 -39q4 -2 47 -15l57 -12
q168 -37 168 -155q0 -67 -59 -108t-155 -41zM247 586q-25 0 -43.5 18t-18.5 44q-3 39 38.5 56t67.5 -13q30 -26 13 -67t-57 -38z" />
    <glyph glyph-name="uni1E6A" unicode="&#x1e6a;" horiz-adv-x="639" 
d="M33 599v101h573v-101h-232v-599h-110v599h-231zM257 831q0 25 18 43t44 18t44 -17.5t18 -43.5t-18 -44.5t-44 -18.5t-44 18.5t-18 44.5z" />
    <glyph glyph-name="uni1E6B" unicode="&#x1e6b;" horiz-adv-x="436" 
d="M128 396h-105v95h105v143h108v-143h155v-95h-155v-231q0 -41 19 -60t58 -19t74 18v-93q-35 -24 -109 -24q-70 0 -110 38t-40 109v262zM183 687q-25 0 -43.5 18.5t-18.5 43.5t18 43t44 18t44 -17.5t18 -43.5t-18 -44t-44 -18z" />
    <glyph glyph-name="Wgrave" unicode="&#x1e80;" horiz-adv-x="1065" 
d="M366 -4h-98l-238 704h123l167 -526l170 527h87l170 -527l167 526h121l-239 -704h-97l-166 521zM354 902h135l95 -140h-99z" />
    <glyph glyph-name="wgrave" unicode="&#x1e81;" horiz-adv-x="836" 
d="M292 -4h-93l-171 495h110l115 -334l114 336h89l116 -336l114 334h109l-172 -495h-94l-119 339zM229 715h134l95 -140h-98z" />
    <glyph glyph-name="Wacute" unicode="&#x1e82;" horiz-adv-x="1065" 
d="M366 -4h-98l-238 704h123l167 -526l170 527h87l170 -527l167 526h121l-239 -704h-97l-166 521zM586 762h-99l95 140h135z" />
    <glyph glyph-name="wacute" unicode="&#x1e83;" horiz-adv-x="836" 
d="M292 -4h-93l-171 495h110l115 -334l114 336h89l116 -336l114 334h109l-172 -495h-94l-119 339zM466 575h-98l95 140h135z" />
    <glyph glyph-name="Wdieresis" unicode="&#x1e84;" horiz-adv-x="1065" 
d="M366 -4h-98l-238 704h123l167 -526l170 527h87l170 -527l167 526h121l-239 -704h-97l-166 521zM388 788q-18 18 -18 43t18 42q18 18 43 18t42 -18q17 -17 17 -42t-17 -43q-17 -17 -42 -17t-43 17zM595 788q-18 18 -18 43t18 42q18 18 43 18t42 -18q17 -17 17 -42t-17 -43
q-17 -17 -42 -17t-43 17z" />
    <glyph glyph-name="wdieresis" unicode="&#x1e85;" horiz-adv-x="836" 
d="M292 -4h-93l-171 495h110l115 -334l114 336h89l116 -336l114 334h109l-172 -495h-94l-119 339zM266 605q-18 18 -18 43t18 42q18 18 43 18t42 -18q17 -17 17 -42t-17 -43q-17 -17 -42 -17t-43 17zM473 605q-18 18 -18 43t18 42q18 18 43 18t42 -18q17 -17 17 -42t-17 -43
q-17 -17 -42 -17t-43 17z" />
    <glyph glyph-name="Ygrave" unicode="&#x1ef2;" horiz-adv-x="684" 
d="M397 0h-110v317l-271 383h128l200 -283l200 283h124l-271 -380v-320zM176 902h135l95 -140h-99z" />
    <glyph glyph-name="ygrave" unicode="&#x1ef3;" horiz-adv-x="571" 
d="M127 -205q-61 0 -89 16v95q32 -16 71 -16q41 0 69.5 30t57.5 98l-215 473h120l148 -346l143 346h117l-235 -544q-66 -152 -187 -152zM130 715h134l95 -140h-98z" />
    <glyph glyph-name="endash" unicode="&#x2013;" horiz-adv-x="751" 
d="M653 227h-555v97h555v-97z" />
    <glyph glyph-name="emdash" unicode="&#x2014;" horiz-adv-x="912" 
d="M814 227h-716v97h716v-97z" />
    <glyph glyph-name="uni2015" unicode="&#x2015;" horiz-adv-x="751" 
d="M653 227h-555v97h555v-97z" />
    <glyph glyph-name="quoteleft" unicode="&#x2018;" horiz-adv-x="234" 
d="M129 700h85l-83 -280h-124z" />
    <glyph glyph-name="quoteright" unicode="&#x2019;" horiz-adv-x="234" 
d="M99 420h-85l83 280h124z" />
    <glyph glyph-name="quotesinglbase" unicode="&#x201a;" horiz-adv-x="254" 
d="M93 -152h-85l83 280h124z" />
    <glyph glyph-name="quotedblleft" unicode="&#x201c;" horiz-adv-x="420" 
d="M315 700h85l-83 -280h-124zM129 700h85l-83 -280h-124z" />
    <glyph glyph-name="quotedblright" unicode="&#x201d;" horiz-adv-x="420" 
d="M285 420h-85l83 280h124zM99 420h-85l83 280h124z" />
    <glyph glyph-name="quotedblbase" unicode="&#x201e;" horiz-adv-x="440" 
d="M279 -152h-85l83 280h124zM93 -152h-85l83 280h124z" />
    <glyph glyph-name="dagger" unicode="&#x2020;" horiz-adv-x="511" 
d="M301 0h-92v402h-168v89h168v209h92v-209h169v-89h-169v-402z" />
    <glyph glyph-name="daggerdbl" unicode="&#x2021;" horiz-adv-x="511" 
d="M301 0h-92v182h-169v89h169v131h-168v89h168v209h92v-209h169v-89h-169v-131h168v-89h-168v-182z" />
    <glyph glyph-name="bullet" unicode="&#x2022;" horiz-adv-x="412" 
d="M206 256q-54 0 -92 38t-38 91q0 54 38 92q38 39 92 39t91 -39q39 -37 39 -92q0 -53 -39 -91q-38 -38 -91 -38z" />
    <glyph glyph-name="ellipsis" unicode="&#x2026;" horiz-adv-x="711" 
d="M126 -8q-30 0 -50.5 20.5t-20.5 50.5q0 29 20.5 49.5t50.5 20.5q28 0 49 -20.5t21 -49.5q0 -30 -20.5 -50.5t-49.5 -20.5zM286 63q0 29 20.5 49.5t49.5 20.5t49.5 -20.5t20.5 -49.5q0 -30 -20.5 -50.5t-49.5 -20.5t-49.5 20.5t-20.5 50.5zM517 63q0 29 20.5 49.5
t49.5 20.5t49.5 -20.5t20.5 -49.5q0 -30 -20.5 -50.5t-49.5 -20.5t-49.5 20.5t-20.5 50.5z" />
    <glyph glyph-name="perthousand" unicode="&#x2030;" horiz-adv-x="1207" 
d="M245 0h-84l414 700h83zM207 713q75 0 124 -49t49 -121t-49 -121q-49 -48 -124 -48q-73 0 -123 48q-48 50 -48 121t48 121q49 49 123 49zM207 447q41 0 67.5 27.5t26.5 68.5q0 42 -26 69t-68 27q-40 0 -66 -27.5t-26 -68.5t26 -68.5t66 -27.5zM610 326q75 0 124 -49
t49 -120q0 -72 -49 -121t-124 -49q-74 0 -123 49q-48 49 -48 121q0 71 48 120q49 49 123 49zM610 61q42 0 68 27t26 69q0 41 -26.5 68.5t-67.5 27.5q-40 0 -66 -27.5t-26 -68.5t26 -68.5t66 -27.5zM999 326q75 0 124 -49t49 -120q0 -73 -49 -122q-49 -48 -124 -48
q-74 0 -123 49q-48 49 -48 121q0 71 48 120q49 49 123 49zM999 60q42 0 68 27.5t26 69.5q0 41 -26.5 68.5t-67.5 27.5q-40 0 -66.5 -27.5t-26.5 -68.5t26.5 -69t66.5 -28z" />
    <glyph glyph-name="guilsinglleft" unicode="&#x2039;" horiz-adv-x="324" 
d="M289 38h-110l-144 180v55l144 181h110l-163 -208z" />
    <glyph glyph-name="guilsinglright" unicode="&#x203a;" horiz-adv-x="323" 
d="M144 38h-109l161 208l-161 208h109l144 -181v-55z" />
    <glyph glyph-name="fraction" unicode="&#x2044;" horiz-adv-x="210" 
d="M-56 0h-91l418 700h91z" />
    <glyph glyph-name="zerosuperior" unicode="&#x2070;" horiz-adv-x="388" 
d="M317 373q-45 -58 -123 -58t-124 58q-45 59 -45 138t45 138q46 58 124 58t123 -58q46 -58 46 -138t-46 -138zM194 392q37 0 58.5 34t21.5 85t-21.5 85t-58.5 34q-36 0 -58.5 -34.5t-22.5 -84.5t22.5 -84.5t58.5 -34.5z" />
    <glyph glyph-name="foursuperior" unicode="&#x2074;" horiz-adv-x="365" 
d="M293 322h-86v92h-191v63l187 223h90v-217h55v-69h-55v-92zM207 601l-101 -118h101v118z" />
    <glyph glyph-name="fivesuperior" unicode="&#x2075;" horiz-adv-x="335" 
d="M139 315q-65 0 -111 27v83q50 -32 108 -32q34 0 56 15t22 42q0 24 -21 39.5t-57 15.5q-52 0 -95 -15l25 210h212v-74h-146l-6 -56q10 2 31 2q65 0 105.5 -33t40.5 -89q0 -62 -46 -98.5t-118 -36.5z" />
    <glyph glyph-name="sixsuperior" unicode="&#x2076;" horiz-adv-x="356" 
d="M186 315q-74 0 -115 48t-41 129q0 90 45 152q47 63 134 63q57 0 89 -23v-78q-34 24 -79 24q-40 0 -67.5 -25t-30.5 -67q30 35 85 35q54 0 89 -34t35 -90q0 -60 -42 -97q-40 -37 -102 -37zM180 387q27 0 44 17.5t17 44.5q0 25 -17.5 42t-43.5 17q-20 0 -38 -11.5
t-27 -30.5q1 -36 19 -57.5t46 -21.5z" />
    <glyph glyph-name="sevensuperior" unicode="&#x2077;" horiz-adv-x="326" 
d="M143 322h-96l154 304h-178v74h278v-69z" />
    <glyph glyph-name="eightsuperior" unicode="&#x2078;" horiz-adv-x="362" 
d="M182 315q-69 0 -113.5 31.5t-44.5 84.5q0 31 20 56.5t50 35.5q-23 10 -37 31.5t-14 46.5q0 47 39.5 76.5t99.5 29.5t99 -29.5t39 -76.5q0 -25 -14.5 -46.5t-37.5 -31.5q30 -10 50 -35.5t20 -56.5q0 -54 -46 -85q-44 -31 -110 -31zM182 387q29 0 48 14.5t19 36.5
q0 24 -18.5 38.5t-48.5 14.5q-31 0 -50 -14.5t-19 -38.5q0 -22 19.5 -36.5t49.5 -14.5zM182 547q23 0 39 13t16 32q0 20 -15.5 32.5t-39.5 12.5q-25 0 -41.5 -12.5t-16.5 -32.5q0 -19 16.5 -32t41.5 -13z" />
    <glyph glyph-name="ninesuperior" unicode="&#x2079;" horiz-adv-x="356" 
d="M173 707q74 0 115.5 -48t41.5 -129q0 -89 -47 -153q-47 -62 -133 -62q-56 0 -90 23v78q35 -24 79 -24q41 0 68.5 25t30.5 67q-30 -35 -85 -35q-54 0 -88.5 34t-34.5 90q0 58 41 96t102 38zM179 635q-27 0 -44 -17.5t-17 -44.5q0 -25 17 -42t43 -17q46 0 65 42
q-1 36 -19 57.5t-45 21.5z" />
    <glyph glyph-name="zeroinferior" unicode="&#x2080;" horiz-adv-x="388" 
d="M317 51q-45 -58 -123 -58t-124 58q-45 59 -45 138t45 138q46 58 124 58t123 -58q46 -58 46 -138t-46 -138zM194 70q37 0 58.5 34t21.5 85t-21.5 85t-58.5 34q-36 0 -58.5 -34.5t-22.5 -84.5t22.5 -84.5t58.5 -34.5z" />
    <glyph glyph-name="oneinferior" unicode="&#x2081;" horiz-adv-x="253" 
d="M210 0h-89v287l-102 -53v88l106 56h85v-378z" />
    <glyph glyph-name="twoinferior" unicode="&#x2082;" horiz-adv-x="359" 
d="M319 0h-279v64l111 96q66 55 66 96q0 21 -16 34t-43 13q-53 0 -105 -40v88q46 34 112 34q57 0 99 -33q43 -31 43 -85q0 -38 -18 -69t-64 -74l-54 -50h148v-74z" />
    <glyph glyph-name="threeinferior" unicode="&#x2083;" horiz-adv-x="330" 
d="M145 -7q-70 0 -121 30v82q55 -34 113 -34q33 0 55 16t22 40t-18.5 39t-51.5 15q-34 0 -59 -11v55l91 79h-141v74h251v-66l-85 -75q44 -7 73 -35.5t29 -76.5q0 -59 -46 -96q-47 -36 -112 -36z" />
    <glyph glyph-name="fourinferior" unicode="&#x2084;" horiz-adv-x="365" 
d="M293 0h-86v92h-191v63l187 223h90v-217h55v-69h-55v-92zM207 279l-101 -118h101v118z" />
    <glyph glyph-name="fiveinferior" unicode="&#x2085;" horiz-adv-x="335" 
d="M139 -7q-65 0 -111 27v83q50 -32 108 -32q34 0 56 15t22 42q0 24 -21 39.5t-57 15.5q-52 0 -95 -15l25 210h212v-74h-146l-6 -56q10 2 31 2q65 0 105.5 -33t40.5 -89q0 -62 -46 -98.5t-118 -36.5z" />
    <glyph glyph-name="sixinferior" unicode="&#x2086;" horiz-adv-x="356" 
d="M186 -7q-74 0 -115 48t-41 129q0 90 45 152q47 63 134 63q57 0 89 -23v-78q-34 24 -79 24q-40 0 -67.5 -25t-30.5 -67q30 35 85 35q54 0 89 -34t35 -90q0 -60 -42 -97q-40 -37 -102 -37zM180 65q27 0 44 17.5t17 44.5q0 25 -17.5 42t-43.5 17q-20 0 -38 -11.5t-27 -30.5
q1 -36 19 -57.5t46 -21.5z" />
    <glyph glyph-name="seveninferior" unicode="&#x2087;" horiz-adv-x="326" 
d="M143 0h-96l154 304h-178v74h278v-69z" />
    <glyph glyph-name="eightinferior" unicode="&#x2088;" horiz-adv-x="362" 
d="M182 -7q-69 0 -113.5 31.5t-44.5 84.5q0 31 20 56.5t50 35.5q-23 10 -37 31.5t-14 46.5q0 47 39.5 76.5t99.5 29.5t99 -29.5t39 -76.5q0 -25 -14.5 -46.5t-37.5 -31.5q30 -10 50 -35.5t20 -56.5q0 -54 -46 -85q-44 -31 -110 -31zM182 65q29 0 48 14.5t19 36.5
q0 24 -18.5 38.5t-48.5 14.5q-31 0 -50 -14.5t-19 -38.5q0 -22 19.5 -36.5t49.5 -14.5zM182 225q23 0 39 13t16 32q0 20 -15.5 32.5t-39.5 12.5q-25 0 -41.5 -12.5t-16.5 -32.5q0 -19 16.5 -32t41.5 -13z" />
    <glyph glyph-name="nineinferior" unicode="&#x2089;" horiz-adv-x="356" 
d="M173 384q74 0 115.5 -48t41.5 -129q0 -89 -47 -153q-47 -62 -133 -62q-56 0 -90 23v78q35 -24 79 -24q41 0 68.5 25t30.5 67q-30 -35 -85 -35q-54 0 -88.5 34t-34.5 90q0 58 41 96t102 38zM179 312q-27 0 -44 -17.5t-17 -44.5q0 -25 17 -42t43 -17q46 0 65 42
q-1 36 -19 57.5t-45 21.5z" />
    <glyph glyph-name="franc" unicode="&#x20a3;" horiz-adv-x="652" 
d="M115 129h-108v78h108v493h496v-100h-386v-185h307v-99h-307v-109h161v-78h-161v-129h-110v129z" />
    <glyph glyph-name="lira" unicode="&#x20a4;" horiz-adv-x="596" 
d="M132 214h-77v78h77v83h-77v78h77v28q0 110 64 171t178 61q94 0 161 -39v-104q-62 40 -145 40q-72 0 -110 -37t-38 -108v-12h221v-78h-221v-83h221v-78h-221v-55q0 -41 -27 -60h331v-99h-491v99h16q33 0 47 15t14 48v52z" />
    <glyph glyph-name="peseta" unicode="&#x20a7;" horiz-adv-x="729" 
d="M207 0h-110v452h-83v91h83v157h301q93 0 153.5 -42t75.5 -115h76v-91h-76q-15 -76 -75 -119.5t-154 -43.5h-191v-289zM207 599v-209h182q62 0 97 27.5t35 77.5t-34.5 77t-97.5 27h-182z" />
    <glyph glyph-name="Euro" unicode="&#x20ac;" horiz-adv-x="673" 
d="M465 480v-78h-240q-3 -24 -3 -44q0 -9 2 -39h241v-78h-223q21 -72 77.5 -112.5t136.5 -40.5q99 0 169 58v-110q-70 -49 -182 -49q-125 0 -209 69q-83 71 -111 185h-87v78h75q-1 8 -1 37q0 6 2 46h-76v78h92q32 104 114 168q83 65 201 65q97 0 167 -43v-105
q-71 47 -154 47q-74 0 -128.5 -34.5t-79.5 -97.5h217z" />
    <glyph glyph-name="uni20B4" unicode="&#x20b4;" horiz-adv-x="606" 
d="M553 389h-498v74h303q45 24 45 71q0 80 -133 80q-89 0 -164 -34v100q73 33 178 33q102 0 169 -44q67 -43 67 -120q0 -56 -37 -86h70v-74zM326 -13q-105 0 -172 43t-67 122q0 68 52 110h-84v74h498v-74h-281q-31 -13 -50 -37t-19 -53q0 -85 142 -85q99 0 173 40v-103
q-78 -37 -192 -37z" />
    <glyph glyph-name="uni20B6" unicode="&#x20b6;" horiz-adv-x="702" 
d="M127 293h-104v78h104v329h291q110 0 171 -57q63 -55 63 -146q0 -93 -63 -148q-62 -56 -171 -56h-181v-83h273v-78h-273v-132h-110v132h-104v78h104v83zM237 601v-230h171q63 0 98.5 30.5t35.5 84.5q0 55 -35.5 85t-98.5 30h-171z" />
    <glyph glyph-name="uni20B6" unicode="&#x20cf;" horiz-adv-x="702" 
d="M127 293h-104v78h104v329h291q110 0 171 -57q63 -55 63 -146q0 -93 -63 -148q-62 -56 -171 -56h-181v-83h273v-78h-273v-132h-110v132h-104v78h104v83zM237 601v-230h171q63 0 98.5 30.5t35.5 84.5q0 55 -35.5 85t-98.5 30h-171z" />
    <glyph glyph-name="uni20B6" unicode="&#x20ce;" horiz-adv-x="702" 
d="M127 293h-104v78h104v329h291q110 0 171 -57q63 -55 63 -146q0 -93 -63 -148q-62 -56 -171 -56h-181v-83h273v-78h-273v-132h-110v132h-104v78h104v83zM237 601v-230h171q63 0 98.5 30.5t35.5 84.5q0 55 -35.5 85t-98.5 30h-171z" />
    <glyph glyph-name="uni20B6" unicode="&#x20cd;" horiz-adv-x="702" 
d="M127 293h-104v78h104v329h291q110 0 171 -57q63 -55 63 -146q0 -93 -63 -148q-62 -56 -171 -56h-181v-83h273v-78h-273v-132h-110v132h-104v78h104v83zM237 601v-230h171q63 0 98.5 30.5t35.5 84.5q0 55 -35.5 85t-98.5 30h-171z" />
    <glyph glyph-name="uni20B6" unicode="&#x20cc;" horiz-adv-x="702" 
d="M127 293h-104v78h104v329h291q110 0 171 -57q63 -55 63 -146q0 -93 -63 -148q-62 -56 -171 -56h-181v-83h273v-78h-273v-132h-110v132h-104v78h104v83zM237 601v-230h171q63 0 98.5 30.5t35.5 84.5q0 55 -35.5 85t-98.5 30h-171z" />
    <glyph glyph-name="uni20B6" unicode="&#x20cb;" horiz-adv-x="702" 
d="M127 293h-104v78h104v329h291q110 0 171 -57q63 -55 63 -146q0 -93 -63 -148q-62 -56 -171 -56h-181v-83h273v-78h-273v-132h-110v132h-104v78h104v83zM237 601v-230h171q63 0 98.5 30.5t35.5 84.5q0 55 -35.5 85t-98.5 30h-171z" />
    <glyph glyph-name="uni20B6" unicode="&#x20ca;" horiz-adv-x="702" 
d="M127 293h-104v78h104v329h291q110 0 171 -57q63 -55 63 -146q0 -93 -63 -148q-62 -56 -171 -56h-181v-83h273v-78h-273v-132h-110v132h-104v78h104v83zM237 601v-230h171q63 0 98.5 30.5t35.5 84.5q0 55 -35.5 85t-98.5 30h-171z" />
    <glyph glyph-name="uni20B6" unicode="&#x20c9;" horiz-adv-x="702" 
d="M127 293h-104v78h104v329h291q110 0 171 -57q63 -55 63 -146q0 -93 -63 -148q-62 -56 -171 -56h-181v-83h273v-78h-273v-132h-110v132h-104v78h104v83zM237 601v-230h171q63 0 98.5 30.5t35.5 84.5q0 55 -35.5 85t-98.5 30h-171z" />
    <glyph glyph-name="uni20B6" unicode="&#x20c8;" horiz-adv-x="702" 
d="M127 293h-104v78h104v329h291q110 0 171 -57q63 -55 63 -146q0 -93 -63 -148q-62 -56 -171 -56h-181v-83h273v-78h-273v-132h-110v132h-104v78h104v83zM237 601v-230h171q63 0 98.5 30.5t35.5 84.5q0 55 -35.5 85t-98.5 30h-171z" />
    <glyph glyph-name="uni20B6" unicode="&#x20c7;" horiz-adv-x="702" 
d="M127 293h-104v78h104v329h291q110 0 171 -57q63 -55 63 -146q0 -93 -63 -148q-62 -56 -171 -56h-181v-83h273v-78h-273v-132h-110v132h-104v78h104v83zM237 601v-230h171q63 0 98.5 30.5t35.5 84.5q0 55 -35.5 85t-98.5 30h-171z" />
    <glyph glyph-name="uni20B6" unicode="&#x20c6;" horiz-adv-x="702" 
d="M127 293h-104v78h104v329h291q110 0 171 -57q63 -55 63 -146q0 -93 -63 -148q-62 -56 -171 -56h-181v-83h273v-78h-273v-132h-110v132h-104v78h104v83zM237 601v-230h171q63 0 98.5 30.5t35.5 84.5q0 55 -35.5 85t-98.5 30h-171z" />
    <glyph glyph-name="uni20B6" unicode="&#x20c5;" horiz-adv-x="702" 
d="M127 293h-104v78h104v329h291q110 0 171 -57q63 -55 63 -146q0 -93 -63 -148q-62 -56 -171 -56h-181v-83h273v-78h-273v-132h-110v132h-104v78h104v83zM237 601v-230h171q63 0 98.5 30.5t35.5 84.5q0 55 -35.5 85t-98.5 30h-171z" />
    <glyph glyph-name="uni20B6" unicode="&#x20c4;" horiz-adv-x="702" 
d="M127 293h-104v78h104v329h291q110 0 171 -57q63 -55 63 -146q0 -93 -63 -148q-62 -56 -171 -56h-181v-83h273v-78h-273v-132h-110v132h-104v78h104v83zM237 601v-230h171q63 0 98.5 30.5t35.5 84.5q0 55 -35.5 85t-98.5 30h-171z" />
    <glyph glyph-name="uni20B6" unicode="&#x20c3;" horiz-adv-x="702" 
d="M127 293h-104v78h104v329h291q110 0 171 -57q63 -55 63 -146q0 -93 -63 -148q-62 -56 -171 -56h-181v-83h273v-78h-273v-132h-110v132h-104v78h104v83zM237 601v-230h171q63 0 98.5 30.5t35.5 84.5q0 55 -35.5 85t-98.5 30h-171z" />
    <glyph glyph-name="uni20B6" unicode="&#x20c2;" horiz-adv-x="702" 
d="M127 293h-104v78h104v329h291q110 0 171 -57q63 -55 63 -146q0 -93 -63 -148q-62 -56 -171 -56h-181v-83h273v-78h-273v-132h-110v132h-104v78h104v83zM237 601v-230h171q63 0 98.5 30.5t35.5 84.5q0 55 -35.5 85t-98.5 30h-171z" />
    <glyph glyph-name="uni20B6" unicode="&#x20c1;" horiz-adv-x="702" 
d="M127 293h-104v78h104v329h291q110 0 171 -57q63 -55 63 -146q0 -93 -63 -148q-62 -56 -171 -56h-181v-83h273v-78h-273v-132h-110v132h-104v78h104v83zM237 601v-230h171q63 0 98.5 30.5t35.5 84.5q0 55 -35.5 85t-98.5 30h-171z" />
    <glyph glyph-name="uni20B6" unicode="&#x20c0;" horiz-adv-x="702" 
d="M127 293h-104v78h104v329h291q110 0 171 -57q63 -55 63 -146q0 -93 -63 -148q-62 -56 -171 -56h-181v-83h273v-78h-273v-132h-110v132h-104v78h104v83zM237 601v-230h171q63 0 98.5 30.5t35.5 84.5q0 55 -35.5 85t-98.5 30h-171z" />
    <glyph glyph-name="uni20B6" unicode="&#x20bf;" horiz-adv-x="702" 
d="M127 293h-104v78h104v329h291q110 0 171 -57q63 -55 63 -146q0 -93 -63 -148q-62 -56 -171 -56h-181v-83h273v-78h-273v-132h-110v132h-104v78h104v83zM237 601v-230h171q63 0 98.5 30.5t35.5 84.5q0 55 -35.5 85t-98.5 30h-171z" />
    <glyph glyph-name="uni20B6" unicode="&#x20be;" horiz-adv-x="702" 
d="M127 293h-104v78h104v329h291q110 0 171 -57q63 -55 63 -146q0 -93 -63 -148q-62 -56 -171 -56h-181v-83h273v-78h-273v-132h-110v132h-104v78h104v83zM237 601v-230h171q63 0 98.5 30.5t35.5 84.5q0 55 -35.5 85t-98.5 30h-171z" />
    <glyph glyph-name="uni20B6" unicode="&#x20bd;" horiz-adv-x="702" 
d="M127 293h-104v78h104v329h291q110 0 171 -57q63 -55 63 -146q0 -93 -63 -148q-62 -56 -171 -56h-181v-83h273v-78h-273v-132h-110v132h-104v78h104v83zM237 601v-230h171q63 0 98.5 30.5t35.5 84.5q0 55 -35.5 85t-98.5 30h-171z" />
    <glyph glyph-name="uni20B6" unicode="&#x20bc;" horiz-adv-x="702" 
d="M127 293h-104v78h104v329h291q110 0 171 -57q63 -55 63 -146q0 -93 -63 -148q-62 -56 -171 -56h-181v-83h273v-78h-273v-132h-110v132h-104v78h104v83zM237 601v-230h171q63 0 98.5 30.5t35.5 84.5q0 55 -35.5 85t-98.5 30h-171z" />
    <glyph glyph-name="uni20B6" unicode="&#x20bb;" horiz-adv-x="702" 
d="M127 293h-104v78h104v329h291q110 0 171 -57q63 -55 63 -146q0 -93 -63 -148q-62 -56 -171 -56h-181v-83h273v-78h-273v-132h-110v132h-104v78h104v83zM237 601v-230h171q63 0 98.5 30.5t35.5 84.5q0 55 -35.5 85t-98.5 30h-171z" />
    <glyph glyph-name="uni20B6" unicode="&#x20ba;" horiz-adv-x="702" 
d="M127 293h-104v78h104v329h291q110 0 171 -57q63 -55 63 -146q0 -93 -63 -148q-62 -56 -171 -56h-181v-83h273v-78h-273v-132h-110v132h-104v78h104v83zM237 601v-230h171q63 0 98.5 30.5t35.5 84.5q0 55 -35.5 85t-98.5 30h-171z" />
    <glyph glyph-name="uni20B6" unicode="&#x20b9;" horiz-adv-x="702" 
d="M127 293h-104v78h104v329h291q110 0 171 -57q63 -55 63 -146q0 -93 -63 -148q-62 -56 -171 -56h-181v-83h273v-78h-273v-132h-110v132h-104v78h104v83zM237 601v-230h171q63 0 98.5 30.5t35.5 84.5q0 55 -35.5 85t-98.5 30h-171z" />
    <glyph glyph-name="uni20B6" unicode="&#x20b7;" horiz-adv-x="702" 
d="M127 293h-104v78h104v329h291q110 0 171 -57q63 -55 63 -146q0 -93 -63 -148q-62 -56 -171 -56h-181v-83h273v-78h-273v-132h-110v132h-104v78h104v83zM237 601v-230h171q63 0 98.5 30.5t35.5 84.5q0 55 -35.5 85t-98.5 30h-171z" />
    <glyph glyph-name="uni2113" unicode="&#x2113;" horiz-adv-x="420" 
d="M226 -13q-158 0 -158 163v340q0 102 43 161t121 59q64 0 101 -43t37 -114q0 -176 -221 -371v-31q0 -90 93 -90q56 0 97 32v-71q-44 -35 -113 -35zM149 495v-210q60 60 102 128q43 70 43 137q0 84 -61 84q-37 0 -60.5 -35t-23.5 -104z" />
    <glyph glyph-name="uni2116" unicode="&#x2116;" horiz-adv-x="1179" 
d="M1090 245h-310v68h310v-68zM195 0h-108v700h96l395 -507v507h108v-700h-93l-398 509v-509zM935 713q75 0 124 -49t49 -121t-49 -121q-49 -48 -124 -48q-73 0 -123 48q-48 50 -48 121t48 121q49 49 123 49zM935 447q41 0 67.5 27.5t26.5 68.5q0 42 -26 69t-68 27
q-40 0 -66 -27.5t-26 -68.5t26 -68.5t66 -27.5z" />
    <glyph glyph-name="trademark" unicode="&#x2122;" horiz-adv-x="689" 
d="M393 390h-61v310h57l94 -127l93 127h59v-310h-62v214l-74 -96h-31l-75 97v-215zM180 390h-62v256h-97v54h259v-54h-100v-256z" />
    <glyph glyph-name="Omega" unicode="&#x2126;" horiz-adv-x="798" 
d="M325 0h-238v101h110q-51 49 -82 122t-31 152q0 142 86 240q87 98 229 98t228 -98q87 -97 87 -240q0 -78 -31.5 -151.5t-82.5 -122.5h111v-101h-238v83q54 42 91 115t37 159q0 112 -56 183q-55 70 -146 70q-90 0 -147 -70q-56 -71 -56 -183q0 -86 37 -159q37 -72 92 -115
v-83z" />
    <glyph glyph-name="estimated" unicode="&#x212e;" horiz-adv-x="795" 
d="M399 -13q-143 0 -241 95q-96 96 -96 240q0 140 94 237q95 98 243 98q140 0 230 -90q92 -90 102 -208q2 -24 2 -37h-567v-201q88 -105 233 -105q94 0 168 47t110 129h33q-34 -88 -117 -147q-82 -58 -194 -58zM166 525v-174h464v174q-92 104 -231 104q-144 0 -233 -104z
" />
    <glyph glyph-name="onethird" unicode="&#x2153;" horiz-adv-x="791" 
d="M196 0h-91l418 700h91zM210 322h-89v287l-102 -53v88l106 56h85v-378zM606 -7q-70 0 -121 30v82q55 -34 113 -34q33 0 55 16t22 40t-18.5 39t-51.5 15q-34 0 -59 -11v55l91 79h-141v74h251v-66l-85 -75q44 -7 73 -35.5t29 -76.5q0 -59 -46 -96q-46 -36 -112 -36z" />
    <glyph glyph-name="twothirds" unicode="&#x2154;" horiz-adv-x="891" 
d="M319 322h-279v64l111 96q66 55 66 96q0 21 -16 34t-43 13q-53 0 -105 -40v88q46 34 112 34q57 0 99 -33q43 -31 43 -85q0 -38 -18 -69t-64 -74l-54 -50h148v-74zM706 -7q-70 0 -121 30v82q55 -34 113 -34q33 0 55 16t22 40t-18.5 39t-51.5 15q-34 0 -59 -11v55l91 79
h-141v74h251v-66l-85 -75q44 -7 73 -35.5t29 -76.5q0 -59 -46 -96q-46 -36 -112 -36zM296 0h-91l418 700h91z" />
    <glyph glyph-name="uni2155" unicode="&#x2155;" horiz-adv-x="772" 
d="M196 0h-91l418 700h91zM210 322h-89v287l-102 -53v88l106 56h85v-378zM576 -7q-64 0 -111 27v83q50 -32 108 -32q34 0 56 15t22 42q0 24 -21 39.5t-57 15.5q-51 0 -95 -15l25 210h212v-74h-146l-6 -56q10 2 31 2q65 0 105.5 -33t40.5 -89q0 -62 -46 -98.5t-118 -36.5z
" />
    <glyph glyph-name="uni2156" unicode="&#x2156;" horiz-adv-x="871" 
d="M675 -7q-65 0 -111 27v83q50 -32 108 -32q34 0 56 15t22 42q0 24 -21 39.5t-57 15.5q-52 0 -95 -15l25 210h212v-74h-146l-6 -56q10 2 31 2q65 0 105.5 -33t40.5 -89q0 -62 -46 -98.5t-118 -36.5zM319 322h-279v64l111 96q66 55 66 96q0 21 -16 34t-43 13q-53 0 -105 -40
v88q46 34 112 34q57 0 99 -33q43 -31 43 -85q0 -38 -18 -69t-64 -74l-54 -50h148v-74zM296 0h-91l418 700h91z" />
    <glyph glyph-name="uni2157" unicode="&#x2157;" horiz-adv-x="818" 
d="M242 0h-91l418 700h91zM622 -7q-64 0 -111 27v83q50 -32 108 -32q34 0 56 15t22 42q0 24 -21 39.5t-57 15.5q-51 0 -95 -15l25 210h212v-74h-146l-6 -56q10 2 31 2q65 0 105.5 -33t40.5 -89q0 -62 -46 -98.5t-118 -36.5zM145 315q-70 0 -121 30v82q55 -34 113 -34
q33 0 55 16t22 40t-18.5 39t-51.5 15q-34 0 -59 -11v55l91 79h-141v74h251v-66l-85 -75q44 -7 73 -35.5t29 -76.5q0 -59 -46 -96q-47 -36 -112 -36z" />
    <glyph glyph-name="uni2158" unicode="&#x2158;" horiz-adv-x="860" 
d="M284 0h-91l418 700h91zM664 -7q-64 0 -111 27v83q50 -32 108 -32q34 0 56 15t22 42q0 24 -21 39.5t-57 15.5q-51 0 -95 -15l25 210h212v-74h-146l-6 -56q10 2 31 2q65 0 105.5 -33t40.5 -89q0 -62 -46 -98.5t-118 -36.5zM293 322h-86v92h-191v63l187 223h90v-217h55v-69
h-55v-92zM207 601l-101 -118h101v118z" />
    <glyph glyph-name="uni2159" unicode="&#x2159;" horiz-adv-x="775" 
d="M196 0h-91l418 700h91zM210 322h-89v287l-102 -53v88l106 56h85v-378zM605 -7q-74 0 -115 48t-41 129q0 90 45 152q46 63 134 63q57 0 89 -23v-78q-34 24 -79 24q-40 0 -67.5 -25t-30.5 -67q30 35 85 35q54 0 89 -34t35 -90q0 -60 -42 -97q-40 -37 -102 -37zM599 65
q27 0 44 17.5t17 44.5q0 25 -17 42t-44 17q-20 0 -38 -11.5t-27 -30.5q1 -36 19 -57.5t46 -21.5z" />
    <glyph glyph-name="uni215A" unicode="&#x215a;" horiz-adv-x="824" 
d="M139 315q-65 0 -111 27v83q50 -32 108 -32q34 0 56 15t22 42q0 24 -21 39.5t-57 15.5q-52 0 -95 -15l25 210h212v-74h-146l-6 -56q10 2 31 2q65 0 105.5 -33t40.5 -89q0 -62 -46 -98.5t-118 -36.5zM654 -7q-74 0 -115 48t-41 129q0 90 45 152q47 63 134 63q57 0 89 -23
v-78q-34 24 -79 24q-40 0 -67.5 -25t-30.5 -67q30 35 85 35q54 0 89 -34t35 -90q0 -60 -42 -97q-40 -37 -102 -37zM648 65q27 0 44 17.5t17 44.5q0 25 -17.5 42t-43.5 17q-20 0 -38 -11.5t-27 -30.5q1 -36 19 -57.5t46 -21.5zM245 0h-91l418 700h91z" />
    <glyph glyph-name="oneeighth" unicode="&#x215b;" horiz-adv-x="795" 
d="M196 0h-91l418 700h91zM210 322h-89v287l-102 -53v88l106 56h85v-378zM615 -7q-69 0 -113.5 31.5t-44.5 84.5q0 31 20 56.5t50 35.5q-23 10 -37 31.5t-14 46.5q0 47 39.5 76.5t99.5 29.5t99 -29.5t39 -76.5q0 -25 -14.5 -46.5t-37.5 -31.5q30 -10 50 -35.5t20 -56.5
q0 -54 -46 -85q-44 -31 -110 -31zM615 65q29 0 48 14.5t19 36.5q0 24 -18.5 38.5t-48.5 14.5q-31 0 -50 -14.5t-19 -38.5q0 -22 19.5 -36.5t49.5 -14.5zM615 225q23 0 39 13t16 32q0 20 -15.5 32.5t-39.5 12.5q-25 0 -41.5 -12.5t-16.5 -32.5q0 -19 16.5 -32t41.5 -13z" />
    <glyph glyph-name="threeeighths" unicode="&#x215c;" horiz-adv-x="842" 
d="M662 -7q-69 0 -113.5 31.5t-44.5 84.5q0 31 20 56.5t50 35.5q-23 10 -37 31.5t-14 46.5q0 47 39.5 76.5t99.5 29.5t99 -29.5t39 -76.5q0 -25 -14.5 -46.5t-37.5 -31.5q30 -10 50 -35.5t20 -56.5q0 -54 -46 -85q-44 -31 -110 -31zM662 65q29 0 48 14.5t19 36.5
q0 24 -18.5 38.5t-48.5 14.5q-31 0 -50 -14.5t-19 -38.5q0 -22 19.5 -36.5t49.5 -14.5zM662 225q23 0 39 13t16 32q0 20 -15.5 32.5t-39.5 12.5q-25 0 -41.5 -12.5t-16.5 -32.5q0 -19 16.5 -32t41.5 -13zM145 315q-70 0 -121 30v82q55 -34 113 -34q33 0 55 16t22 40
t-18.5 39t-51.5 15q-34 0 -59 -11v55l91 79h-141v74h251v-66l-85 -75q44 -7 73 -35.5t29 -76.5q0 -59 -46 -96q-47 -36 -112 -36zM242 0h-91l418 700h91z" />
    <glyph glyph-name="fiveeighths" unicode="&#x215d;" horiz-adv-x="845" 
d="M665 -7q-69 0 -113.5 31.5t-44.5 84.5q0 31 20 56.5t50 35.5q-23 10 -37 31.5t-14 46.5q0 47 39.5 76.5t99.5 29.5t99 -29.5t39 -76.5q0 -25 -14.5 -46.5t-37.5 -31.5q30 -10 50 -35.5t20 -56.5q0 -54 -46 -85q-44 -31 -110 -31zM665 65q29 0 48 14.5t19 36.5
q0 24 -18.5 38.5t-48.5 14.5q-31 0 -50 -14.5t-19 -38.5q0 -22 19.5 -36.5t49.5 -14.5zM665 225q23 0 39 13t16 32q0 20 -15.5 32.5t-39.5 12.5q-25 0 -41.5 -12.5t-16.5 -32.5q0 -19 16.5 -32t41.5 -13zM139 315q-65 0 -111 27v83q50 -32 108 -32q34 0 56 15t22 42
q0 24 -21 39.5t-57 15.5q-52 0 -95 -15l25 210h212v-74h-146l-6 -56q10 2 31 2q65 0 105.5 -33t40.5 -89q0 -62 -46 -98.5t-118 -36.5zM245 0h-91l418 700h91z" />
    <glyph glyph-name="seveneighths" unicode="&#x215e;" horiz-adv-x="784" 
d="M604 -7q-69 0 -113.5 31.5t-44.5 84.5q0 31 20 56.5t50 35.5q-23 10 -37 31.5t-14 46.5q0 47 39.5 76.5t99.5 29.5t99 -29.5t39 -76.5q0 -25 -14.5 -46.5t-37.5 -31.5q30 -10 50 -35.5t20 -56.5q0 -54 -46 -85q-44 -31 -110 -31zM604 65q29 0 48 14.5t19 36.5
q0 24 -18.5 38.5t-48.5 14.5q-31 0 -50 -14.5t-19 -38.5q0 -22 19.5 -36.5t49.5 -14.5zM604 225q23 0 39 13t16 32q0 20 -15.5 32.5t-39.5 12.5q-25 0 -41.5 -12.5t-16.5 -32.5q0 -19 16.5 -32t41.5 -13zM143 322h-96l154 304h-178v74h278v-69zM185 0h-91l418 700h91z" />
    <glyph glyph-name="uni215F" unicode="&#x215f;" horiz-adv-x="444" 
d="M210 322h-89v287l-102 -53v88l106 56h85v-378zM196 0h-91l418 700h91z" />
    <glyph glyph-name="arrowleft" unicode="&#x2190;" horiz-adv-x="718" 
d="M52 267l188 216h113l-153 -171h446v-88h-446l153 -172h-113z" />
    <glyph glyph-name="arrowup" unicode="&#x2191;" horiz-adv-x="574" 
d="M287 594l216 -188v-113l-171 153v-446h-88v446l-172 -153v113z" />
    <glyph glyph-name="arrowright" unicode="&#x2192;" horiz-adv-x="718" 
d="M518 312l-153 171h113l187 -216l-187 -215h-113l153 172h-446v88h446z" />
    <glyph glyph-name="arrowdown" unicode="&#x2193;" horiz-adv-x="574" 
d="M288 -12l-216 187v113l171 -153v446h88v-446l172 153v-113z" />
    <glyph glyph-name="partialdiff" unicode="&#x2202;" horiz-adv-x="622" 
d="M271 -13q-101 0 -165 60t-64 162q0 106 66 181q68 75 167 75q121 0 182 -91q0 61 -19 112q-18 54 -63 91q-45 39 -109 39q-76 0 -141 -39v90q67 43 153 43q129 0 205 -97q77 -97 77 -255q0 -144 -65 -252q-33 -55 -91.5 -87t-132.5 -32zM280 82q68 0 113.5 47.5
t56.5 129.5q-21 50 -63 80.5t-92 30.5q-63 0 -106 -42t-43 -109q0 -61 37.5 -99t96.5 -38z" />
    <glyph glyph-name="increment" unicode="&#x2206;" horiz-adv-x="762" 
d="M740 0h-718l306 700h106zM380 562l-200 -461h400z" />
    <glyph glyph-name="product" unicode="&#x220f;" horiz-adv-x="768" 
d="M265 -131h-99v743h-117v88h670v-88h-117v-743h-99v743h-238v-743z" />
    <glyph glyph-name="summation" unicode="&#x2211;" horiz-adv-x="615" 
d="M572 0h-521v78l241 272l-236 272v78h510v-101h-351l191 -226v-45l-198 -227h364v-101z" />
    <glyph glyph-name="minus" unicode="&#x2212;" horiz-adv-x="668" 
d="M600 280h-532v97h532v-97z" />
    <glyph glyph-name="uni2215" unicode="&#x2215;" horiz-adv-x="536" 
d="M107 0h-92l419 700h91z" />
    <glyph glyph-name="uni2219" unicode="&#x2219;" horiz-adv-x="239" 
d="M121 181q-30 0 -50.5 20.5t-20.5 50.5q0 29 20.5 49.5t50.5 20.5q29 0 49.5 -21t20.5 -49q0 -30 -20.5 -50.5t-49.5 -20.5z" />
    <glyph glyph-name="radical" unicode="&#x221a;" horiz-adv-x="705" 
d="M410 0h-91l-181 403h-138v88h201l164 -369l226 578h98z" />
    <glyph glyph-name="infinity" unicode="&#x221e;" horiz-adv-x="802" 
d="M220 129q-70 0 -123 48q-52 49 -52 131q0 80 52 128q52 49 124 49q100 0 180 -113q78 113 181 113q76 0 125 -52q49 -50 49 -125q0 -79 -49 -129q-50 -50 -125 -50q-103 0 -182 112q-79 -112 -180 -112zM229 207q65 0 129 100q-18 28 -36 49q-43 51 -94 51
q-43 0 -69.5 -29t-26.5 -70q0 -42 26.5 -71.5t70.5 -29.5zM574 207q36 -1 61 20t30.5 51t-0.5 59.5t-31 50t-61 18.5q-37 0 -66.5 -24t-62.5 -75q61 -100 130 -100z" />
    <glyph glyph-name="integral" unicode="&#x222b;" horiz-adv-x="521" 
d="M25 -205q-54 0 -91 19v90q37 -14 70 -14q103 0 124 132l77 488q16 94 68 147t141 53q53 0 92 -18v-91q-33 14 -71 14q-103 0 -123 -128l-78 -492q-15 -92 -68 -146t-141 -54z" />
    <glyph glyph-name="approxequal" unicode="&#x2248;" horiz-adv-x="660" 
d="M467 357q-54 0 -139 28t-136 28q-79 0 -124 -47v98q15 19 50 31.5t74 12.5q50 0 137 -29q85 -28 138 -28q79 0 125 48v-99q-16 -19 -50.5 -31t-74.5 -12zM467 127q-54 0 -139 28q-89 29 -136 29q-78 0 -124 -48v98q15 19 50 31.5t74 12.5q50 0 137 -29q85 -28 138 -28
q79 0 125 48v-98q-16 -19 -51 -31.5t-74 -12.5z" />
    <glyph glyph-name="notequal" unicode="&#x2260;" horiz-adv-x="631" 
d="M221 53h-97l59 113h-115v97h166l68 131h-234v97h285l56 107h97l-56 -107h113v-97h-164l-68 -131h232v-97h-283z" />
    <glyph glyph-name="lessequal" unicode="&#x2264;" horiz-adv-x="631" 
d="M563 281v-108l-495 187v93l495 187v-108l-382 -125zM562 36h-494v96h494v-96z" />
    <glyph glyph-name="greaterequal" unicode="&#x2265;" horiz-adv-x="631" 
d="M563 360l-495 -187v108l382 126l-382 125v108l495 -187v-93zM563 36h-495v96h495v-96z" />
    <glyph glyph-name="dotmath" unicode="&#x22c5;" horiz-adv-x="250" 
d="M126 315q-30 0 -50.5 20.5t-20.5 50.5q0 29 20.5 49.5t50.5 20.5q28 0 49 -21t21 -49q0 -30 -20.5 -50.5t-49.5 -20.5z" />
    <glyph glyph-name="lozenge" unicode="&#x25ca;" horiz-adv-x="564" 
d="M328 0h-92l-195 350l195 350h92l195 -350zM142 350l141 -257l141 257l-141 257z" />
    <glyph glyph-name="uniF401" unicode="&#xf401;" horiz-adv-x="16" 
d="M-354 762h-99l95 140h135z" />
    <glyph glyph-name="uniF639" unicode="&#xf639;" 
d="M322 -13q-125 -1 -201.5 105.5t-74.5 257.5q-2 150 74.5 257t201.5 106q128 0 201 -106q75 -105 75 -257q0 -153 -75 -258q-73 -105 -201 -105zM322 88q77 0 122 75t45 187t-45 187t-122 75q-76 0 -121 -76q-45 -75 -45 -186t45 -187q45 -75 121 -75z" />
    <glyph glyph-name="uniF63A" unicode="&#xf63a;" 
d="M564 0h-487v80l220 206q70 65 103 112q30 45 30 96q0 53 -38.5 85.5t-100.5 32.5q-105 0 -196 -87v115q86 73 207 73q99 0 168 -57q70 -57 70 -149q0 -71 -35 -129q-37 -59 -118 -136l-151 -144h328v-98z" />
    <glyph glyph-name="uniF63B" unicode="&#xf63b;" 
d="M283 -13q-124 0 -209 53v107q86 -62 203 -62q69 0 119 38q50 39 50 104q0 61 -44 98.5t-118 37.5q-48 0 -89 -16v75l188 182h-283v96h429v-83l-179 -172q84 -9 146 -68q61 -58 61 -150q0 -108 -79 -174q-78 -66 -195 -66z" />
    <glyph glyph-name="uniF63C" unicode="&#xf63c;" 
d="M500 0h-108v183h-363v84l363 433h108v-423h109v-94h-109v-183zM392 559l-238 -282h238v282z" />
    <glyph glyph-name="uniF63D" unicode="&#xf63d;" 
d="M278 -13q-113 0 -197 48v103q86 -53 192 -53q75 0 127 38q52 39 52 103q0 61 -48.5 100t-127.5 39q-81 0 -168 -30l46 365h360v-96h-280l-20 -161q41 11 88 11q114 0 187 -63q74 -63 74 -165q0 -110 -82 -174q-82 -65 -203 -65z" />
    <glyph glyph-name="uniF63E" unicode="&#xf63e;" 
d="M336 -13q-128 0 -201 87q-72 87 -72 241q0 168 83 283q82 115 230 115q87 0 154 -44v-100q-65 44 -142 44q-101 0 -155 -70q-53 -71 -57 -170q61 79 181 79q95 0 160 -62t65 -161q0 -107 -71 -175q-70 -67 -175 -67zM329 84q63 0 103 40q41 41 41 103q0 61 -42 98
q-41 38 -103 38q-51 0 -97 -32q-44 -32 -58 -79q6 -79 47 -123.5t109 -44.5z" />
    <glyph glyph-name="uniF63F" unicode="&#xf63f;" 
d="M254 0h-118l303 601h-353v99h478v-85z" />
    <glyph glyph-name="uniF640" unicode="&#xf640;" 
d="M456 372q64 -21 101.5 -68t37.5 -109q0 -97 -79 -152q-79 -56 -194 -56t-195 56q-79 55 -79 152q0 62 38 109t102 68q-49 21 -77.5 61t-28.5 91q0 83 68 136t172 53q103 0 171 -53t68 -136q0 -51 -28 -91t-77 -61zM322 408q58 0 96 30t38 77t-38 77t-96 30t-96.5 -30
t-38.5 -77t38.5 -77t96.5 -30zM482 202q0 53 -46 87q-44 34 -114 34q-69 0 -115 -34t-46 -87t46 -87q47 -35 115 -35q67 0 114 35q46 34 46 87z" />
    <glyph glyph-name="uniF641" unicode="&#xf641;" 
d="M303 713q128 0 200 -87q73 -86 73 -241q0 -168 -83 -284q-83 -114 -230 -114q-87 0 -154 44v100q65 -44 142 -44q102 0 154 70q54 70 58 170q-61 -79 -181 -79q-97 0 -161 61t-64 162q0 107 70 174q71 68 176 68zM310 616q-62 0 -103 -41t-41 -102t41 -99q41 -37 104 -37
q52 0 96 32q45 32 59 79q-6 79 -47 123.5t-109 44.5z" />
    <glyph glyph-name="uniF643" unicode="&#xf643;" 
d="M322 82q68 0 115 47q46 46 46 117q0 70 -46 116q-47 47 -115 47q-69 0 -116 -47q-46 -46 -46 -116q0 -71 46 -117q47 -47 116 -47zM322 -13q-117 0 -194 75q-76 75 -76 184q0 108 76 183q77 75 194 75q116 0 193 -75q76 -75 76 -183t-76 -184q-77 -75 -193 -75z" />
    <glyph glyph-name="uniF644" unicode="&#xf644;" 
d="M569 0h-470v96h186v279l-153 -84v107l165 93h97v-395h175v-96z" />
    <glyph glyph-name="uniF645" unicode="&#xf645;" 
d="M554 0h-465v81q166 87 216 119l42 27q6 4 34 26q38 33 38 70q0 38 -30 59.5t-82 21.5q-98 0 -201 -77v104q94 73 210 73q96 0 154 -46q59 -45 59 -121q0 -59 -40.5 -104t-116.5 -85l-100 -52h282v-96z" />
    <glyph glyph-name="uniF646" unicode="&#xf646;" 
d="M272 -205q-123 0 -208 53v107q88 -62 202 -62q71 0 120 37q50 38 50 101q0 60 -44 95.5t-119 35.5q-41 0 -89 -16v75l188 174h-283v96h429v-82l-179 -165q85 -9 147 -65q61 -55 61 -148q0 -107 -79 -171q-79 -65 -196 -65z" />
    <glyph glyph-name="uniF647" unicode="&#xf647;" 
d="M500 -200h-108v200h-363v85l363 406h108v-396h109v-95h-109v-200zM392 361l-237 -266h237v266z" />
    <glyph glyph-name="uniF648" unicode="&#xf648;" 
d="M279 -205q-113 0 -197 48v104q86 -54 193 -54q76 0 127 39t51 103q0 59 -48 97q-46 37 -128 37q-80 0 -169 -30l45 352h361v-96h-280l-18 -149q39 11 88 11q113 0 186 -61q74 -62 74 -161q0 -111 -82 -175q-82 -65 -203 -65z" />
    <glyph glyph-name="uniF649" unicode="&#xf649;" 
d="M336 -13q-128 0 -201 87q-72 87 -72 241q0 168 83 283q82 115 230 115q87 0 154 -44v-100q-65 44 -142 44q-101 0 -155 -70q-53 -71 -57 -170q61 79 181 79q95 0 160 -62t65 -161q0 -107 -71 -175q-70 -67 -175 -67zM329 84q63 0 103 40q41 41 41 103q0 61 -42 98
q-41 38 -103 38q-51 0 -97 -32q-44 -32 -58 -79q6 -79 47 -123.5t109 -44.5z" />
    <glyph glyph-name="uniF64A" unicode="&#xf64a;" 
d="M258 -200h-118l298 593h-352v98h477v-84z" />
    <glyph glyph-name="uniF64B" unicode="&#xf64b;" 
d="M456 372q64 -21 101.5 -68t37.5 -109q0 -97 -79 -152q-79 -56 -194 -56t-195 56q-79 55 -79 152q0 62 38 109t102 68q-49 21 -77.5 61t-28.5 91q0 83 68 136t172 53q103 0 171 -53t68 -136q0 -51 -28 -91t-77 -61zM322 408q58 0 96 30t38 77t-38 77t-96 30t-96.5 -30
t-38.5 -77t38.5 -77t96.5 -30zM482 202q0 53 -46 87q-44 34 -114 34q-69 0 -115 -34t-46 -87t46 -87q47 -35 115 -35q67 0 114 35q46 34 46 87z" />
    <glyph glyph-name="uniF64C" unicode="&#xf64c;" 
d="M306 504q128 0 200 -87q73 -86 73 -241q3 -164 -82 -272.5t-231 -108.5q-87 0 -154 44v100q65 -44 142 -44q102 0 155 63q52 61 57 160q-61 -79 -181 -79q-97 0 -161 61t-64 162q0 107 70 174q71 68 176 68zM313 407q-62 0 -103 -41t-41 -102t41 -99q41 -37 104 -37
q52 0 96 32q45 32 59 79q-6 79 -47 123.5t-109 44.5z" />
    <glyph glyph-name="uniF64E" unicode="&#xf64e;" horiz-adv-x="564" 
d="M90 277h-67v60h80q25 75 95 121q68 46 155 46q83 0 147 -34v-92q-63 33 -130 33q-51 0 -91.5 -19.5t-61.5 -54.5h182v-60h-203q-2 -26 -2 -31q0 -17 3 -32h202v-60h-181q21 -35 61 -54t91 -19q77 0 138 37v-91q-67 -40 -156 -40q-86 0 -153 45q-68 45 -95 122h-81v60h67
q-2 14 -2 33q0 4 2 30z" />
    <glyph glyph-name="uniF653" unicode="&#xf653;" horiz-adv-x="512" 
d="M300 -10v-104h-92v103q-104 9 -161 48v103q86 -59 200 -59q51 0 79.5 15t28.5 42q0 24 -30 39q-13 6 -47 15l-61 15q-87 22 -126 56.5t-39 96.5q0 57 41 94t115 47v105h92v-104q87 -8 141 -42v-99q-89 50 -177 50q-49 0 -75 -14.5t-26 -39.5q0 -23 31 -39q4 -2 47 -15
l57 -12q168 -37 168 -155q0 -58 -45 -97t-121 -49z" />
    <glyph glyph-name="commaaccent" unicode="&#xf6c3;" horiz-adv-x="234" 
d="M126 -251h-82l58 191h108z" />
    <glyph glyph-name="cyrbreve" unicode="&#xf6d4;" horiz-adv-x="469" 
d="M246 557q-76 0 -124 45t-49 120h91q0 -36 22.5 -59t58.5 -23t58.5 23t23.5 59h92q-1 -75 -49 -120t-124 -45z" />
    <glyph glyph-name="uniF6DC" unicode="&#xf6dc;" 
d="M562 0h-477v95h190v487l-154 -82v107l165 93h97v-605h179v-95z" />
    <glyph glyph-name="uniF721" unicode="&#xf721;" horiz-adv-x="561" 
d="M439 332h54v-60h-432v60h258q36 16 36 38q0 45 -102 45q-75 0 -150 -28v90q73 30 162 30q53 0 94 -10q46 -10 77 -39t31 -69q0 -38 -28 -57zM123 170h-62v60h432v-60h-247q-42 -14 -42 -44q0 -46 110 -46q79 0 150 28v-92q-70 -29 -162 -29q-49 0 -98 11q-48 10 -80.5 39
t-32.5 69q0 43 32 64z" />
    <glyph glyph-name="uniF722" unicode="&#xf722;" horiz-adv-x="600" 
d="M222 0h-107v64h-82v60h82v45h-82v67h82v255h249q88 0 139 -45t51 -116q0 -74 -53 -117.5t-142 -43.5h-137v-45h181v-60h-181v-64zM343 404h-121v-168h121q49 0 76.5 22t27.5 62t-27.5 62t-76.5 22z" />
    <glyph glyph-name="uniF725" unicode="&#xf725;" horiz-adv-x="549" 
d="M208 93h289v-93h-441v93h26q45 0 45 61v37h-71v82h71v42q0 90 56.5 139.5t158.5 49.5q82 0 144 -32v-95q-69 34 -135 34q-56 0 -87.5 -23t-31.5 -63v-52h208v-82h-208v-37q0 -44 -24 -61z" />
    <glyph glyph-name="uniF727" unicode="&#xf727;" horiz-adv-x="599" 
d="M246 197h-150v60h126l-179 234h122l135 -183l136 183h121l-183 -234h129v-60h-150v-55h150v-60h-150v-82h-107v82h-150v60h150v55z" />
    <glyph glyph-name="uniF730" unicode="&#xf730;" horiz-adv-x="623" 
d="M312 82q68 0 115 47q46 46 46 117q0 70 -46 116q-47 47 -115 47q-69 0 -116 -47q-46 -46 -46 -116q0 -71 46 -117q47 -47 116 -47zM312 -13q-118 0 -194 75t-76 184q0 108 76 183t194 75q116 0 193 -75q76 -75 76 -183t-76 -184q-77 -75 -193 -75z" />
    <glyph glyph-name="uniF731" unicode="&#xf731;" horiz-adv-x="378" 
d="M293 0h-108v375l-152 -84v107l164 93h96v-491z" />
    <glyph glyph-name="uniF732" unicode="&#xf732;" horiz-adv-x="570" 
d="M515 0h-465v81q166 87 216 119l42 27q6 4 34 26q38 33 38 70q0 38 -30 59.5t-82 21.5q-98 0 -201 -77v104q94 73 210 73q96 0 154 -46q59 -45 59 -121q0 -59 -40.5 -104t-116.5 -85l-100 -52h282v-96z" />
    <glyph glyph-name="uniF733" unicode="&#xf733;" horiz-adv-x="557" 
d="M233 -205q-123 0 -208 53v107q88 -62 202 -62q71 0 120 37q50 38 50 101q0 60 -44 95.5t-119 35.5q-41 0 -89 -16v75l188 174h-283v96h429v-82l-179 -165q85 -9 147 -65q61 -55 61 -148q0 -107 -79 -171q-79 -65 -196 -65z" />
    <glyph glyph-name="uniF734" unicode="&#xf734;" horiz-adv-x="637" 
d="M500 -200h-108v200h-363v85l363 406h108v-396h109v-95h-109v-200zM392 361l-237 -266h237v266z" />
    <glyph glyph-name="uniF735" unicode="&#xf735;" horiz-adv-x="590" 
d="M246 -205q-113 0 -197 48v104q85 -54 193 -54q76 0 127 39t51 103q0 59 -48 97q-46 37 -128 37q-80 0 -169 -30l45 352h361v-96h-280l-18 -149q39 11 88 11q113 0 186 -61q74 -62 74 -161q0 -111 -82 -175q-82 -65 -203 -65z" />
    <glyph glyph-name="uniF736" unicode="&#xf736;" horiz-adv-x="639" 
d="M333 -13q-127 0 -201 87q-72 87 -72 241q0 168 83 283q82 115 230 115q87 0 154 -44v-100q-65 44 -142 44q-101 0 -155 -70q-53 -71 -57 -170q61 79 181 79q95 0 160 -62t65 -161q0 -107 -71 -175q-70 -67 -175 -67zM326 84q63 0 103 40q41 41 41 103q0 61 -42 98
q-41 38 -103 38q-51 0 -97 -32q-44 -32 -58 -79q6 -79 47 -123.5t109 -44.5z" />
    <glyph glyph-name="uniF737" unicode="&#xf737;" horiz-adv-x="553" 
d="M211 -200h-118l298 593h-352v98h477v-84z" />
    <glyph glyph-name="uniF738" unicode="&#xf738;" horiz-adv-x="642" 
d="M455 372q64 -21 101.5 -68t37.5 -109q0 -97 -79 -152q-79 -56 -194 -56t-195 56q-79 55 -79 152q0 62 38 109t102 68q-49 21 -77.5 61t-28.5 91q0 83 68 136t172 53q103 0 171 -53t68 -136q0 -51 -28 -91t-77 -61zM321 408q58 0 96 30t38 77t-38 77t-96 30t-96.5 -30
t-38.5 -77t38.5 -77t96.5 -30zM481 202q0 53 -46 87q-44 34 -114 34q-69 0 -115 -34t-46 -87t46 -87q47 -35 115 -35q67 0 114 35q46 34 46 87z" />
    <glyph glyph-name="uniF739" unicode="&#xf739;" horiz-adv-x="638" 
d="M309 504q128 0 200 -87q73 -86 73 -241q3 -164 -82 -272.5t-231 -108.5q-87 0 -154 44v100q65 -44 142 -44q103 0 155 63q52 61 57 160q-61 -79 -181 -79q-97 0 -161 61t-64 162q0 107 70 174q71 68 176 68zM316 407q-62 0 -103 -41t-41 -102t41 -99q41 -37 104 -37
q52 0 96 32q45 32 59 79q-6 79 -47 123.5t-109 44.5z" />
    <glyph glyph-name="NULL" horiz-adv-x="0" 
 />
    <glyph glyph-name="CR" horiz-adv-x="333" 
 />
    <glyph glyph-name="atilde.alt" horiz-adv-x="640" 
d="M280 -13q-104 0 -171 75q-67 74 -67 184q0 109 67 183q67 75 171 75q113 0 175 -80v67h108v-491h-108v67q-62 -80 -175 -80zM309 82q47 0 86 24.5t60 63.5v152q-21 38 -60.5 62.5t-85.5 24.5q-68 0 -113 -48q-45 -47 -45 -115q0 -69 45 -117q45 -47 113 -47zM211 585h-65
q1 55 29.5 91.5t72.5 36.5q29 0 72 -25q44 -24 63 -24q34 0 41 46h65q-1 -54 -29.5 -91t-72.5 -37q-29 0 -73 24q-43 25 -63 25q-33 0 -40 -46z" />
    <glyph glyph-name="uni043D_uni0438" horiz-adv-x="985" 
d="M185 0h-108v491h108v-192h249v192h108v-333l265 333h101v-491h-108v334l-265 -334h-101v204h-249v-204z" />
    <glyph glyph-name="uni041D_uni0418" horiz-adv-x="1240" 
d="M197 0h-110v700h110v-276h365v276h110v-514l385 514h96v-700h-110v516l-387 -516h-94v323h-365v-323z" />
    <glyph glyph-name="uni041F_uni0418" horiz-adv-x="1224" 
d="M197 0h-110v700h569v-514l385 514h96v-700h-110v516l-387 -516h-94v599h-349v-599z" />
    <glyph glyph-name="uni043F_uni0438" horiz-adv-x="978" 
d="M185 0h-108v491h458v-333l265 333h101v-491h-108v334l-265 -334h-101v396h-242v-396z" />
    <glyph glyph-name="adieresis.alt" horiz-adv-x="640" 
d="M280 -13q-104 0 -171 75q-67 74 -67 184q0 109 67 183q67 75 171 75q113 0 175 -80v67h108v-491h-108v67q-62 -80 -175 -80zM309 82q47 0 86 24.5t60 63.5v152q-21 38 -60.5 62.5t-85.5 24.5q-68 0 -113 -48q-45 -47 -45 -115q0 -69 45 -117q45 -47 113 -47zM168 605
q-18 18 -18 43t18 42q18 18 43 18t42 -18q17 -17 17 -42t-17 -43q-17 -17 -42 -17t-43 17zM375 605q-18 18 -18 43t18 42q18 18 43 18t42 -18q17 -17 17 -42t-17 -43q-17 -17 -42 -17t-43 17z" />
    <glyph glyph-name="acircumflex.alt" horiz-adv-x="640" 
d="M280 -13q-104 0 -171 75q-67 74 -67 184q0 109 67 183q67 75 171 75q113 0 175 -80v67h108v-491h-108v67q-62 -80 -175 -80zM309 82q47 0 86 24.5t60 63.5v152q-21 38 -60.5 62.5t-85.5 24.5q-68 0 -113 -48q-45 -47 -45 -115q0 -69 45 -117q45 -47 113 -47zM139 575
l114 140h112l114 -140h-101l-69 85l-69 -85h-101z" />
    <glyph glyph-name="agrave.alt" horiz-adv-x="640" 
d="M280 -13q-104 0 -171 75q-67 74 -67 184q0 109 67 183q67 75 171 75q113 0 175 -80v67h108v-491h-108v67q-62 -80 -175 -80zM309 82q47 0 86 24.5t60 63.5v152q-21 38 -60.5 62.5t-85.5 24.5q-68 0 -113 -48q-45 -47 -45 -115q0 -69 45 -117q45 -47 113 -47zM166 715h134
l95 -140h-98z" />
    <glyph glyph-name="aacute.alt" horiz-adv-x="640" 
d="M280 -13q-104 0 -171 75q-67 74 -67 184q0 109 67 183q67 75 171 75q113 0 175 -80v67h108v-491h-108v67q-62 -80 -175 -80zM309 82q47 0 86 24.5t60 63.5v152q-21 38 -60.5 62.5t-85.5 24.5q-68 0 -113 -48q-45 -47 -45 -115q0 -69 45 -117q45 -47 113 -47zM327 575h-98
l95 140h135z" />
    <glyph glyph-name="Q.alt01" horiz-adv-x="848" 
d="M419 -13q-154 0 -256 104q-101 106 -101 259q0 154 101 258q102 105 256 105t256 -105q102 -104 102 -258q0 -134 -81 -235l95 -115h-122l-42 51q-91 -64 -208 -64zM419 90q76 0 140 44l-164 199h121l107 -130q41 65 41 147q0 111 -71 185q-71 75 -174 75t-174 -75
q-70 -73 -70 -185t70 -186q71 -74 174 -74z" />
    <glyph glyph-name="cyrbreve.cap" horiz-adv-x="569" 
d="M256 741q-79 0 -128 45t-50 120h92q0 -37 23 -59.5t62 -22.5t62 23t24 59h92q-1 -75 -50.5 -120t-126.5 -45z" />
    <glyph glyph-name="idieresis_idieresis" horiz-adv-x="531" 
d="M195 0h-109v491h109v-491zM445 0h-109v491h109v-491zM-8 605q-18 18 -18 43t18 42q18 18 43 18t42 -18q17 -17 17 -42t-17 -43q-17 -17 -42 -17t-43 17zM224 605q-18 18 -18 43t18 42q18 18 43 18t42 -18q17 -17 17 -42t-17 -43q-17 -17 -42 -17t-43 17zM455 605
q-18 18 -18 43t18 42q18 18 43 18t42 -18q17 -17 17 -42t-17 -43q-17 -17 -42 -17t-43 17z" />
    <glyph glyph-name="uniF64E.mono" 
d="M127 277h-67v60h80q25 75 95 121q68 46 155 46q83 0 147 -34v-92q-63 33 -130 33q-51 0 -91.5 -19.5t-61.5 -54.5h182v-60h-203q-2 -26 -2 -31q0 -17 3 -32h202v-60h-181q21 -35 61 -54t91 -19q77 0 138 37v-91q-67 -40 -156 -40q-85 0 -153 45t-95 122h-81v60h67
q-2 14 -2 33q0 4 2 30z" />
    <glyph glyph-name="pesolow.mono" 
d="M209 0h-108v277h-84v87h84v127h256q76 0 124.5 -34.5t61.5 -92.5h75v-87h-76q-14 -57 -64.5 -90t-125.5 -33h-143v-154zM336 404h-127v-166h127q48 0 75.5 22t27.5 61t-27.5 61t-75.5 22z" />
    <glyph glyph-name="uni0438_uni043D" horiz-adv-x="985" 
d="M178 0h-101v491h108v-333l265 333h101v-192h249v192h108v-491h-108v204h-249v-204h-108v334z" />
    <glyph glyph-name="franclow.mono" 
d="M239 0h-105v64h-72v60h72v367h404v-93h-299v-121h231v-85h-231v-68h122v-60h-122v-64z" />
    <glyph glyph-name="uniF727.mono" 
d="M268 197h-150v60h126l-179 234h122l135 -183l136 183h121l-183 -234h129v-60h-150v-55h150v-60h-150v-82h-107v82h-150v60h150v55z" />
    <glyph glyph-name="uniF653.mono" 
d="M367 -10v-104h-92v103q-104 9 -161 48v103q86 -59 200 -59q51 0 79.5 15t28.5 42q0 24 -30 39q-13 6 -47 15l-61 15q-87 22 -126 56.5t-39 96.5q0 57 41 94t115 47v105h92v-104q87 -8 141 -42v-99q-89 50 -177 50q-49 0 -75 -14.5t-26 -39.5q0 -23 31 -39q4 -2 47 -15
l57 -12q168 -37 168 -155q0 -58 -45 -97t-121 -49z" />
    <glyph glyph-name="uniF725.mono" 
d="M240 93h289v-93h-441v93h26q45 0 45 61v37h-71v82h71v42q0 90 56.5 139.5t158.5 49.5q82 0 144 -32v-95q-69 34 -135 34q-56 0 -87.5 -23t-31.5 -63v-52h208v-82h-208v-37q0 -44 -24 -61z" />
    <glyph glyph-name="uniF721.mono" 
d="M470 332h54v-60h-432v60h258q36 16 36 38q0 45 -102 45q-75 0 -150 -28v90q74 30 162 30q53 0 94 -10q46 -10 77 -39t31 -69q0 -38 -28 -57zM154 170h-62v60h432v-60h-247q-42 -14 -42 -44q0 -46 110 -46q79 0 150 28v-92q-70 -29 -162 -29q-49 0 -98 11q-48 10 -80.5 39
t-32.5 69q0 43 32 64z" />
    <glyph glyph-name="tilde.cap" horiz-adv-x="514" 
d="M158 770h-65q1 54 29.5 90.5t72.5 36.5q30 0 73 -25q44 -24 63 -24q33 0 40 46h65q-1 -54 -29.5 -90.5t-72.5 -36.5q-28 0 -72 24q-43 25 -63 25q-34 0 -41 -46z" />
    <glyph glyph-name="Euro.mono" 
d="M460 480v-78h-240q-3 -24 -3 -44q0 -9 2 -39h241v-78h-223q21 -72 77.5 -112.5t136.5 -40.5q99 0 169 58v-110q-70 -49 -182 -49q-125 0 -209 69q-83 71 -111 185h-87v78h75q-1 8 -1 37q0 6 2 46h-76v78h92q31 104 114 168q83 65 201 65q97 0 167 -43v-105
q-71 47 -154 47q-74 0 -128.5 -34.5t-79.5 -97.5h217z" />
    <glyph glyph-name="sterling.mono" 
d="M544 0h-491v99h15q33 0 47 15t14 48v127h-76v89h76v103q0 109 64.5 170.5t177.5 61.5q93 0 161 -39v-104q-62 40 -144 40q-72 0 -110.5 -37t-38.5 -108v-87h249v-89h-249v-130q0 -39 -27 -60h332v-99z" />
    <glyph glyph-name="yen.mono" 
d="M64 135v78h203v83h-203v78h167l-219 326h128l183 -283l185 283h123l-218 -326h167v-78h-203v-83h203v-78h-203v-135h-110v135h-203z" />
    <glyph glyph-name="dollar.mono" 
d="M371 -9v-102h-108v101q-127 12 -210 72v118q39 -36 112 -64q72 -27 145 -27q70 0 116 28.5t46 76.5q0 38 -31 65q-12 11 -36 21q-29 14 -96 33l-14 4q-57 16 -91 29q-27 10 -70 35q-72 45 -72 141q0 76 53 126t148 62v101h108v-101q90 -10 169 -55v-109q-107 65 -222 65
q-70 0 -106.5 -24.5t-36.5 -65.5q0 -61 144 -102q60 -16 121 -39q65 -23 105 -70.5t40 -113.5q0 -84 -60 -138q-58 -53 -154 -67z" />
    <glyph glyph-name="hungarumlaut.cap" horiz-adv-x="605" 
d="M397 762h-99l95 140h135zM192 762h-99l95 140h135z" />
    <glyph glyph-name="T_h" horiz-adv-x="1105" 
d="M676 323v-323h-108v599h-194v-599h-110v599h-231v101h643v-274q72 78 180 78q87 0 134.5 -54t47.5 -150v-300h-108v276q0 71 -34 99t-81 28q-40 0 -79 -22.5t-60 -57.5z" />
    <glyph glyph-name="f_j" 
d="M115 0v396h-92v95h92v64q0 71 40 113t114 42q64 0 115 -21v-91q-47 18 -85 18q-76 0 -76 -80v-45h335v-526q0 -82 -43.5 -126t-119.5 -44q-63 0 -98 20v94q32 -19 72 -19q81 0 81 87v419h-227v-396h-108zM551 598q-19 -19 -48 -19t-49 19q-19 20 -19 49t19 49
q20 20 49 20t48 -20q20 -20 20 -49t-20 -49z" />
    <glyph glyph-name="Q.alt02" horiz-adv-x="845" 
d="M245 -157v107q50 33 100 44q-125 25 -205 123q-78 99 -78 233q0 154 101 258q102 105 256 105t256 -105q102 -104 102 -258q0 -143 -88 -243q-89 -101 -225 -117q33 -8 126 -46q96 -39 150 -39q37 0 62 16v-101q-26 -14 -69 -14q-64 0 -175 47q-108 46 -163 46
q-88 0 -150 -56zM245 164q71 -74 174 -74t174 74q71 76 71 186q0 111 -71 185q-71 75 -174 75t-174 -75q-70 -73 -70 -185t70 -186z" />
    <glyph glyph-name="uniF722.mono" 
d="M244 0h-107v64h-82v60h82v45h-82v67h82v255h249q88 0 139 -45t51 -116q0 -74 -53 -117.5t-142 -43.5h-137v-45h181v-60h-181v-64zM365 404h-121v-168h121q49 0 76.5 22t27.5 62t-27.5 62t-76.5 22z" />
    <glyph glyph-name="f_f_t" horiz-adv-x="1093" 
d="M785 134v262h-227v-396h-108v396h-227v-396h-108v396h-92v95h92v64q0 71 40 113t114 42q64 0 115 -21v-91q-47 18 -85 18q-76 0 -76 -80v-45h227v64q0 71 40 113t114 42q64 0 115 -21v-91q-47 18 -85 18q-76 0 -76 -80v-45h227v143h108v-143h155v-95h-155v-231
q0 -41 18.5 -60t58.5 -19t74 18v-93q-34 -24 -109 -24q-70 0 -110 38t-40 109z" />
    <glyph glyph-name="uni20B4.mono" 
d="M562 389h-498v74h303q45 24 45 71q0 80 -133 80q-89 0 -164 -34v100q73 33 178 33q102 0 169 -44q67 -43 67 -120q0 -56 -37 -86h70v-74zM335 -13q-105 0 -172 43t-67 122q0 68 52 110h-84v74h498v-74h-281q-31 -13 -50 -37t-19 -53q0 -85 142 -85q99 0 173 40v-103
q-78 -37 -192 -37z" />
    <glyph glyph-name="breve.cap" horiz-adv-x="516" 
d="M256 748q-64 0 -108 42q-45 45 -46 112h80q2 -34 23 -56.5t51 -22.5t50.5 22.5t22.5 56.5h80q-1 -69 -46 -112q-43 -42 -107 -42z" />
    <glyph glyph-name="dotaccent.cap" horiz-adv-x="445" 
d="M156 831q0 25 18 43t44 18t44 -17.5t18 -43.5t-18 -44.5t-44 -18.5t-44 18.5t-18 44.5z" />
    <glyph glyph-name="caron.cap" horiz-adv-x="535" 
d="M439 902l-114 -140h-112l-114 140h101l69 -85l69 85h101z" />
    <glyph glyph-name="ring.cap" horiz-adv-x="520" 
d="M255 735q-41 0 -70 28.5t-29 69.5t29 70t70 29q40 0 69 -29.5t29 -69.5t-29 -69t-69 -29zM255 783q20 0 35 14.5t15 35.5t-15 36t-35 15q-31 1 -44 -25t0 -52t44 -24z" />
    <glyph glyph-name="grave.cap" horiz-adv-x="511" 
d="M122 902h135l95 -140h-99z" />
    <glyph glyph-name="acute.cap" horiz-adv-x="470" 
d="M223 762h-99l95 140h135z" />
    <glyph glyph-name="macron.cap" horiz-adv-x="537" 
d="M406 793h-281v77h281v-77z" />
    <glyph glyph-name="dieresis.cap" horiz-adv-x="505" 
d="M119 788q-18 18 -18 43t18 42q18 18 43 18t42 -18q17 -17 17 -42t-17 -43q-17 -17 -42 -17t-43 17zM326 788q-18 18 -18 43t18 42q18 18 43 18t42 -18q17 -17 17 -42t-17 -43q-17 -17 -42 -17t-43 17z" />
    <glyph glyph-name="aring.alt" horiz-adv-x="640" 
d="M280 -13q-104 0 -171 75q-67 74 -67 184q0 109 67 183q67 75 171 75q113 0 175 -80v67h108v-491h-108v67q-62 -80 -175 -80zM309 82q47 0 86 24.5t60 63.5v152q-21 38 -60.5 62.5t-85.5 24.5q-68 0 -113 -48q-45 -47 -45 -115q0 -69 45 -117q45 -47 113 -47zM378 579
q-29 -29 -69 -29t-70 29q-29 29 -29 69t29 69q29 30 70 30t70 -30q29 -29 29 -69t-30 -69zM360 648q1 31 -25 44t-52 0t-25 -44q0 -20 15 -35t36 -15t36 15t15 35z" />
    <glyph glyph-name="uni0438_uni0439" horiz-adv-x="994" 
d="M178 0h-101v491h108v-333l265 333h101v-333l265 333h101v-491h-108v334l-265 -334h-101v334zM678 557q-76 0 -124 45t-49 120h92q0 -37 21.5 -59.5t58.5 -22.5t59 22.5t23 59.5h92q-1 -75 -49 -120t-124 -45z" />
    <glyph glyph-name="uni0418_uni0419" horiz-adv-x="1246" 
d="M181 0h-94v700h110v-514l385 514h96v-514l385 514h96v-700h-110v516l-387 -516h-94v516zM863 741q-79 0 -128 45t-50 120h92q0 -37 23 -59.5t62 -22.5t62 23t24 59h92q-1 -75 -50.5 -120t-126.5 -45z" />
    <glyph glyph-name="gcommaaccent.alt" horiz-adv-x="610" 
d="M442 451l137 53v-87l-86 -37q21 -36 21 -80q0 -62 -33 -111q68 -65 68 -161q0 -98 -73 -165q-74 -68 -186 -68q-107 0 -183 64q-75 65 -75 171h109q0 -60 42 -100q41 -40 107 -40q64 0 107 40t43 98q0 56 -37 94q-51 -27 -115 -27q-99 0 -164 59q-64 60 -64 146
q0 87 64 145q65 59 164 59q92 0 154 -53zM414 300q0 50 -36 83t-90 33t-90 -33t-36 -83q0 -51 36 -84t90 -33t90 33t36 84zM297 756h82l-58 -191h-108z" />
    <glyph glyph-name="gdotaccent.alt" horiz-adv-x="610" 
d="M442 451l137 53v-87l-86 -37q21 -36 21 -80q0 -62 -33 -111q68 -65 68 -161q0 -98 -73 -165q-74 -68 -186 -68q-107 0 -183 64q-75 65 -75 171h109q0 -60 42 -100q41 -40 107 -40q64 0 107 40t43 98q0 56 -37 94q-51 -27 -115 -27q-99 0 -164 59q-64 60 -64 146
q0 87 64 145q65 59 164 59q92 0 154 -53zM414 300q0 50 -36 83t-90 33t-90 -33t-36 -83q0 -51 36 -84t90 -33t90 33t36 84zM228 648q0 25 18 43t44 18t44 -17.5t18 -43.5t-18 -44t-44 -18t-44 18t-18 44z" />
    <glyph glyph-name="gbreve.alt" horiz-adv-x="610" 
d="M442 451l137 53v-87l-86 -37q21 -36 21 -80q0 -62 -33 -111q68 -65 68 -161q0 -98 -73 -165q-74 -68 -186 -68q-107 0 -183 64q-75 65 -75 171h109q0 -60 42 -100q41 -40 107 -40q64 0 107 40t43 98q0 56 -37 94q-51 -27 -115 -27q-99 0 -164 59q-64 60 -64 146
q0 87 64 145q65 59 164 59q92 0 154 -53zM414 300q0 50 -36 83t-90 33t-90 -33t-36 -83q0 -51 36 -84t90 -33t90 33t36 84zM287 561q-65 0 -108 42q-45 45 -46 112h80q2 -34 23 -56.5t51 -22.5t51 22.5t23 56.5h79q-1 -69 -46 -112q-44 -42 -107 -42z" />
    <glyph glyph-name="circumflex.cap" horiz-adv-x="517" 
d="M89 762l114 140h112l114 -140h-101l-69 85l-69 -85h-101z" />
    <glyph glyph-name="amacron.alt" horiz-adv-x="640" 
d="M280 -13q-104 0 -171 75q-67 74 -67 184q0 109 67 183q67 75 171 75q113 0 175 -80v67h108v-491h-108v67q-62 -80 -175 -80zM309 82q47 0 86 24.5t60 63.5v152q-21 38 -60.5 62.5t-85.5 24.5q-68 0 -113 -48q-45 -47 -45 -115q0 -69 45 -117q45 -47 113 -47zM457 608
h-281v77h281v-77z" />
    <glyph glyph-name="uni0418_uni041D" horiz-adv-x="1240" 
d="M181 0h-94v700h110v-514l385 514h96v-276h365v276h110v-700h-110v323h-365v-323h-110v516z" />
    <glyph glyph-name="franc.mono" 
d="M103 129h-108v78h108v493h496v-100h-386v-185h307v-99h-307v-109h161v-78h-161v-129h-110v129z" />
    <glyph glyph-name="aogonek.alt" horiz-adv-x="640" 
d="M571 -199q-54 0 -87.5 29t-33.5 72q0 54 44 98h-39v67q-62 -80 -175 -80q-104 0 -171 75q-67 74 -67 184q0 109 67 183q67 75 171 75q113 0 175 -80v67h108v-491q-36 -36 -36 -76q0 -26 17 -41.5t45 -15.5q20 0 38 7v-66q-20 -7 -56 -7zM309 82q47 0 86 24.5t60 63.5v152
q-21 38 -60.5 62.5t-85.5 24.5q-68 0 -113 -48q-45 -47 -45 -115q0 -69 45 -117q45 -47 113 -47z" />
    <glyph glyph-name="abreve.alt" horiz-adv-x="640" 
d="M280 -13q-104 0 -171 75q-67 74 -67 184q0 109 67 183q67 75 171 75q113 0 175 -80v67h108v-491h-108v67q-62 -80 -175 -80zM309 82q47 0 86 24.5t60 63.5v152q-21 38 -60.5 62.5t-85.5 24.5q-68 0 -113 -48q-45 -47 -45 -115q0 -69 45 -117q45 -47 113 -47zM311 561
q-65 0 -108 42q-45 45 -46 112h80q2 -34 23 -56.5t51 -22.5t51 22.5t23 56.5h79q-1 -69 -46 -112q-44 -42 -107 -42z" />
    <glyph glyph-name="lira.mono" 
d="M153 214h-77v78h77v83h-77v78h77v28q0 110 64 171t178 61q93 0 161 -39v-104q-62 40 -145 40q-72 0 -110 -37t-38 -108v-12h221v-78h-221v-83h221v-78h-221v-55q0 -41 -27 -60h331v-99h-491v99h16q33 0 47 15t14 48v52z" />
    <glyph glyph-name="t_t" horiz-adv-x="771" 
d="M463 134v262h-227v-231q0 -41 19 -60t58 -19t74 18v-93q-35 -24 -109 -24q-70 0 -110 38t-40 109v262h-105v95h105v143h108v-143h227v143h108v-143h155v-95h-155v-231q0 -41 18.5 -60t58.5 -19t74 18v-93q-34 -24 -109 -24q-70 0 -110 38t-40 109z" />
    <glyph glyph-name="peseta.mono" 
d="M170 0h-110v452h-83v91h83v157h301q93 0 153.5 -42t75.5 -115h76v-91h-76q-15 -76 -75 -119.5t-154 -43.5h-191v-289zM170 599v-209h182q62 0 97 27.5t35 77.5t-34.5 77t-97.5 27h-182z" />
    <glyph glyph-name="t.alt" horiz-adv-x="376" 
d="M68 134v500h108v-143h155v-95h-155v-231q0 -41 19 -60t58 -19t74 18v-93q-35 -24 -109 -24q-70 0 -110 38t-40 109z" />
    <glyph glyph-name="f.alt01" horiz-adv-x="371" 
d="M185 396v-396h-108v555q0 71 40 113t114 42q64 0 115 -21v-91q-46 18 -85 18q-76 0 -76 -80v-45h161v-95h-161z" />
    <glyph glyph-name="gcircumflex.alt" horiz-adv-x="610" 
d="M442 451l137 53v-87l-86 -37q21 -36 21 -80q0 -62 -33 -111q68 -65 68 -161q0 -98 -73 -165q-74 -68 -186 -68q-107 0 -183 64q-75 65 -75 171h109q0 -60 42 -100q41 -40 107 -40q64 0 107 40t43 98q0 56 -37 94q-51 -27 -115 -27q-99 0 -164 59q-64 60 -64 146
q0 87 64 145q65 59 164 59q92 0 154 -53zM414 300q0 50 -36 83t-90 33t-90 -33t-36 -83q0 -51 36 -84t90 -33t90 33t36 84zM123 575l114 140h112l114 -140h-101l-69 85l-69 -85h-101z" />
    <glyph glyph-name="twothirds.mono" horiz-adv-x="848" 
d="M315 322h-279v64l111 96q66 55 66 96q0 21 -16 34t-43 13q-53 0 -105 -40v88q46 34 112 34q57 0 99 -33q43 -31 43 -85q0 -38 -18 -69t-64 -74l-54 -50h148v-74zM659 -7q-70 0 -121 30v82q55 -34 113 -34q33 0 55 16t22 40t-18.5 39t-51.5 15q-34 0 -59 -11v55l91 79
h-141v74h251v-66l-85 -75q44 -7 73 -35.5t29 -76.5q0 -59 -46 -96q-47 -36 -112 -36zM270 0h-91l418 700h91z" />
    <glyph glyph-name="onethird.mono" horiz-adv-x="848" 
d="M639 -7q-70 0 -121 30v82q55 -34 113 -34q33 0 55 16t22 40t-18.5 39t-51.5 15q-34 0 -59 -11v55l91 79h-141v74h251v-66l-85 -75q44 -7 73 -35.5t29 -76.5q0 -59 -46 -96q-47 -36 -112 -36zM243 322h-89v287l-102 -53v88l106 56h85v-378zM230 0h-91l418 700h91z" />
    <glyph glyph-name="uni2155.mono" horiz-adv-x="848" 
d="M240 0h-91l418 700h91zM254 322h-89v287l-102 -53v88l106 56h85v-378zM619 -7q-65 0 -111 27v83q50 -32 108 -32q34 0 56 15t22 42q0 24 -21 39.5t-57 15.5q-52 0 -95 -15l25 210h212v-74h-146l-6 -56q10 2 31 2q65 0 105.5 -33t40.5 -89q0 -62 -46 -98.5t-118 -36.5z
" />
    <glyph glyph-name="uni2156.mono" horiz-adv-x="848" 
d="M279 0h-91l418 700h91zM324 322h-279v64l111 96q66 55 66 96q0 21 -16 34t-43 13q-53 0 -105 -40v88q46 34 112 34q57 0 99 -33q43 -31 43 -85q0 -38 -18 -69t-64 -74l-54 -50h148v-74zM638 -7q-64 0 -111 27v83q50 -32 108 -32q34 0 56 15t22 42q0 24 -21 39.5t-57 15.5
q-51 0 -95 -15l25 210h212v-74h-146l-6 -56q10 2 31 2q65 0 105.5 -33t40.5 -89q0 -62 -46 -98.5t-118 -36.5z" />
    <glyph glyph-name="uni2157.mono" horiz-adv-x="848" 
d="M641 -7q-65 0 -111 27v83q50 -32 108 -32q34 0 56 15t22 42q0 24 -21 39.5t-57 15.5q-52 0 -95 -15l25 210h212v-74h-146l-6 -56q10 2 31 2q65 0 105.5 -33t40.5 -89q0 -62 -46 -98.5t-118 -36.5zM164 315q-70 0 -121 30v82q55 -34 113 -34q33 0 55 16t22 40t-18.5 39
t-51.5 15q-34 0 -59 -11v55l91 79h-141v74h251v-66l-85 -75q44 -7 73 -35.5t29 -76.5q0 -59 -46 -96q-47 -36 -112 -36zM261 0h-91l418 700h91z" />
    <glyph glyph-name="uni2158.mono" horiz-adv-x="848" 
d="M645 -7q-65 0 -111 27v83q50 -32 108 -32q34 0 56 15t22 42q0 24 -21 39.5t-57 15.5q-52 0 -95 -15l25 210h212v-74h-146l-6 -56q10 2 31 2q65 0 105.5 -33t40.5 -89q0 -62 -46 -98.5t-118 -36.5zM316 322h-86v92h-191v63l187 223h90v-217h55v-69h-55v-92zM230 601
l-101 -118h101v118zM286 0h-91l418 700h91z" />
    <glyph glyph-name="uni2159.mono" horiz-adv-x="848" 
d="M239 0h-91l418 700h91zM253 322h-89v287l-102 -53v88l106 56h85v-378zM647 -7q-74 0 -115 48t-41 129q0 90 45 152q46 63 134 63q57 0 89 -23v-78q-35 24 -79 24q-40 0 -67.5 -25t-30.5 -67q30 35 85 35q54 0 89 -34t35 -90q0 -60 -42 -97q-40 -37 -102 -37zM641 65
q27 0 44 17.5t17 44.5q0 25 -17 42t-44 17q-20 0 -38 -11.5t-27 -30.5q1 -36 19 -57.5t46 -21.5z" />
    <glyph glyph-name="uni215A.mono" horiz-adv-x="848" 
d="M257 0h-91l418 700h91zM666 -7q-74 0 -115 48t-41 129q0 90 45 152q47 63 134 63q57 0 89 -23v-78q-35 24 -79 24q-40 0 -67.5 -25t-30.5 -67q30 35 85 35q54 0 89 -34t35 -90q0 -60 -42 -97q-40 -37 -102 -37zM660 65q27 0 44 17.5t17 44.5q0 25 -17.5 42t-43.5 17
q-20 0 -38 -11.5t-27 -30.5q1 -36 19 -57.5t46 -21.5zM151 315q-65 0 -111 27v83q50 -32 108 -32q34 0 56 15t22 42q0 24 -21 39.5t-57 15.5q-51 0 -95 -15l25 210h212v-74h-146l-6 -56q10 2 31 2q65 0 105.5 -33t40.5 -89q0 -62 -46 -98.5t-118 -36.5z" />
    <glyph glyph-name="seveneighths.mono" horiz-adv-x="879" 
d="M656 -7q-69 0 -113.5 31.5t-44.5 84.5q0 31 20 56.5t50 35.5q-23 10 -37 31.5t-14 46.5q0 47 39.5 76.5t99.5 29.5t99 -29.5t39 -76.5q0 -25 -14.5 -46.5t-37.5 -31.5q30 -10 50 -35.5t20 -56.5q0 -54 -46 -85q-44 -31 -110 -31zM656 65q29 0 48 14.5t19 36.5
q0 24 -18.5 38.5t-48.5 14.5q-31 0 -50 -14.5t-19 -38.5q0 -22 19.5 -36.5t49.5 -14.5zM656 225q23 0 39 13t16 32q0 20 -15.5 32.5t-39.5 12.5q-25 0 -41.5 -12.5t-16.5 -32.5q0 -19 16.5 -32t41.5 -13zM195 322h-96l154 304h-178v74h278v-69zM236 0h-91l418 700h91z" />
    <glyph glyph-name="fiveeighths.mono" horiz-adv-x="879" 
d="M679 -7q-69 0 -113.5 31.5t-44.5 84.5q0 31 20 56.5t50 35.5q-23 10 -37 31.5t-14 46.5q0 47 39.5 76.5t99.5 29.5t99 -29.5t39 -76.5q0 -25 -14.5 -46.5t-37.5 -31.5q30 -10 50 -35.5t20 -56.5q0 -54 -46 -85q-44 -31 -110 -31zM679 65q29 0 48 14.5t19 36.5
q0 24 -18.5 38.5t-48.5 14.5q-31 0 -50 -14.5t-19 -38.5q0 -22 19.5 -36.5t49.5 -14.5zM679 225q23 0 39 13t16 32q0 20 -15.5 32.5t-39.5 12.5q-25 0 -41.5 -12.5t-16.5 -32.5q0 -19 16.5 -32t41.5 -13zM157 315q-65 0 -111 27v83q50 -32 108 -32q34 0 56 15t22 42
q0 24 -21 39.5t-57 15.5q-52 0 -95 -15l25 210h212v-74h-146l-6 -56q10 2 31 2q65 0 105.5 -33t40.5 -89q0 -62 -46 -98.5t-118 -36.5zM260 0h-91l418 700h91z" />
    <glyph glyph-name="threeeighths.mono" horiz-adv-x="879" 
d="M679 -7q-69 0 -113.5 31.5t-44.5 84.5q0 31 20 56.5t50 35.5q-23 10 -37 31.5t-14 46.5q0 47 39.5 76.5t99.5 29.5t99 -29.5t39 -76.5q0 -25 -14.5 -46.5t-37.5 -31.5q30 -10 50 -35.5t20 -56.5q0 -54 -46 -85q-44 -31 -110 -31zM679 65q29 0 48 14.5t19 36.5
q0 24 -18.5 38.5t-48.5 14.5q-31 0 -50 -14.5t-19 -38.5q0 -22 19.5 -36.5t49.5 -14.5zM679 225q23 0 39 13t16 32q0 20 -15.5 32.5t-39.5 12.5q-25 0 -41.5 -12.5t-16.5 -32.5q0 -19 16.5 -32t41.5 -13zM162 315q-70 0 -121 30v82q55 -34 113 -34q33 0 55 16t22 40
t-18.5 39t-51.5 15q-34 0 -59 -11v55l91 79h-141v74h251v-66l-85 -75q44 -7 73 -35.5t29 -76.5q0 -59 -46 -96q-46 -36 -112 -36zM260 0h-91l418 700h91z" />
    <glyph glyph-name="oneeighth.mono" horiz-adv-x="879" 
d="M658 -7q-69 0 -113.5 31.5t-44.5 84.5q0 31 20 56.5t50 35.5q-23 10 -37 31.5t-14 46.5q0 47 39.5 76.5t99.5 29.5t99 -29.5t39 -76.5q0 -25 -14.5 -46.5t-37.5 -31.5q30 -10 50 -35.5t20 -56.5q0 -54 -46 -85q-44 -31 -110 -31zM658 65q29 0 48 14.5t19 36.5
q0 24 -18.5 38.5t-48.5 14.5q-31 0 -50 -14.5t-19 -38.5q0 -22 19.5 -36.5t49.5 -14.5zM658 225q23 0 39 13t16 32q0 20 -15.5 32.5t-39.5 12.5q-25 0 -41.5 -12.5t-16.5 -32.5q0 -19 16.5 -32t41.5 -13zM251 322h-89v287l-102 -53v88l106 56h85v-378zM238 0h-91l418 700h91
z" />
    <glyph glyph-name="onequarter.mono" horiz-adv-x="848" 
d="M732 0h-86v92h-191v63l187 223h90v-217h55v-69h-55v-92zM646 279l-101 -118h101v118zM255 322h-89v287l-102 -53v88l106 56h85v-378zM240 0h-91l418 700h91z" />
    <glyph glyph-name="onehalf.mono" horiz-adv-x="848" 
d="M799 0h-279v64l111 96q66 55 66 96q0 21 -16 34t-43 13q-53 0 -105 -40v88q46 34 112 34q57 0 99 -33q43 -31 43 -85q0 -38 -18 -69t-64 -74l-54 -50h148v-74zM241 322h-89v287l-102 -53v88l106 56h85v-378zM228 0h-91l418 700h91z" />
    <glyph glyph-name="a.alt" horiz-adv-x="640" 
d="M280 -13q-104 0 -171 75q-67 74 -67 184q0 109 67 183q67 75 171 75q113 0 175 -80v67h108v-491h-108v67q-62 -80 -175 -80zM309 82q47 0 86 24.5t60 63.5v152q-21 38 -60.5 62.5t-85.5 24.5q-68 0 -113 -48q-45 -47 -45 -115q0 -69 45 -117q45 -47 113 -47z" />
    <glyph glyph-name="g.alt" horiz-adv-x="610" 
d="M442 451l137 53v-87l-86 -37q21 -36 21 -80q0 -62 -33 -111q68 -65 68 -161q0 -98 -73 -165q-74 -68 -186 -68q-107 0 -183 64q-75 65 -75 171h109q0 -60 42 -100q41 -40 107 -40q64 0 107 40t43 98q0 56 -37 94q-51 -27 -115 -27q-99 0 -164 59q-64 60 -64 146
q0 87 64 145q65 59 164 59q92 0 154 -53zM414 300q0 50 -36 83t-90 33t-90 -33t-36 -83q0 -51 36 -84t90 -33t90 33t36 84z" />
    <glyph glyph-name="threequarters.mono" horiz-adv-x="848" 
d="M259 0h-91l418 700h91zM750 0h-86v92h-191v63l187 223h90v-217h55v-69h-55v-92zM664 279l-101 -118h101v118zM162 315q-70 0 -121 30v82q55 -34 113 -34q33 0 55 16t22 40t-18.5 39t-51.5 15q-34 0 -59 -11v55l91 79h-141v74h251v-66l-85 -75q44 -7 73 -35.5t29 -76.5
q0 -59 -46 -96q-46 -36 -112 -36z" />
    <glyph glyph-name="Idieresis_Idieresis" horiz-adv-x="563" 
d="M472 0h-110v700h110v-700zM202 0h-110v700h110v-700zM-2 788q-18 18 -18 43t18 42q18 18 43 18t42 -18q17 -17 17 -42t-17 -43q-17 -17 -42 -17t-43 17zM239 788q-18 18 -18 43t18 42q18 18 43 18t42 -18q17 -17 17 -42t-17 -43q-17 -17 -42 -17t-43 17zM481 788
q-18 18 -18 43t18 42q18 18 43 18t42 -18q17 -17 17 -42t-17 -43q-17 -17 -42 -17t-43 17z" />
    <glyph glyph-name="O_C" horiz-adv-x="1286" 
d="M419 -13q-154 0 -256 104q-101 106 -101 259q0 154 101 258q102 105 256 105q95 0 174 -43t127 -119q49 76 131.5 119t181.5 43q107 0 190 -47v-111q-85 55 -189 55q-110 0 -184 -74q-73 -73 -73 -186t74 -187q74 -73 187 -73q120 0 200 64v-111q-88 -56 -205 -56
q-99 0 -181.5 43t-131.5 119q-48 -76 -127 -119t-174 -43zM245 164q71 -74 174 -74t174 74q71 76 71 186q0 111 -71 185q-71 75 -174 75t-174 -75q-70 -73 -70 -185t70 -186z" />
    <glyph glyph-name="O_O" horiz-adv-x="1441" 
d="M419 -13q-154 0 -256 104q-101 106 -101 259q0 154 101 258q102 105 256 105q95 0 174 -43t127 -119q49 76 127.5 119t173.5 43q154 0 256 -105q102 -104 102 -258t-102 -259q-102 -104 -256 -104q-96 0 -174.5 43t-126.5 119q-48 -76 -127 -119t-174 -43zM245 164
q71 -74 174 -74t174 74q71 76 71 186q0 111 -71 185q-71 75 -174 75t-174 -75q-70 -73 -70 -185t70 -186zM847 164q71 -74 174 -74t174 74q71 76 71 186q0 111 -71 185q-71 75 -174 75t-174 -75q-70 -73 -70 -185t70 -186z" />
    <glyph glyph-name="o_c" horiz-adv-x="951" 
d="M738 -13q-63 0 -120 27.5t-92 75.5q-36 -48 -92.5 -75.5t-121.5 -27.5q-118 0 -194 75t-76 184q0 108 76 183t194 75q65 0 121 -27.5t93 -75.5q36 48 93 75.5t120 27.5q84 0 148 -34v-93q-67 32 -132 32q-74 0 -124 -46q-50 -47 -50 -117q0 -71 50 -118q50 -46 124 -46
q79 0 140 37v-92q-70 -40 -157 -40zM312 82q68 0 115 47q46 46 46 117q0 70 -46 116q-47 47 -115 47q-69 0 -116 -47q-46 -46 -46 -116q0 -71 46 -117q47 -47 116 -47z" />
    <glyph glyph-name="o_o" horiz-adv-x="1055" 
d="M312 -13q-118 0 -194 75t-76 184q0 108 76 183t194 75q66 0 122.5 -28.5t92.5 -76.5q36 49 93.5 77t123.5 28q116 0 193 -75q76 -75 76 -183t-76 -184q-77 -75 -193 -75q-67 0 -123.5 28t-93.5 76q-36 -48 -92.5 -76t-122.5 -28zM312 82q68 0 115 47q46 46 46 117
q0 70 -46 116q-47 47 -115 47q-69 0 -116 -47q-46 -46 -46 -116q0 -71 46 -117q47 -47 116 -47zM744 82q68 0 115 47q46 46 46 117q0 70 -46 116q-47 47 -115 47q-69 0 -116 -47q-46 -46 -46 -116q0 -71 46 -117q47 -47 116 -47z" />
    <glyph glyph-name="liralow" horiz-adv-x="574" 
d="M208 93h289v-93h-441v93h26q45 0 45 61h-71v60h71v54h-71v60h71q4 84 60.5 130t154.5 46q82 0 144 -32v-95q-69 34 -135 34q-56 0 -87 -22t-32 -61h201v-60h-201v-54h201v-60h-201q0 -44 -24 -61z" />
    <glyph glyph-name="franclow" horiz-adv-x="534" 
d="M197 0h-105v64h-72v60h72v367h404v-93h-299v-121h231v-85h-231v-68h122v-60h-122v-64z" />
    <glyph glyph-name="pesolow" horiz-adv-x="636" 
d="M209 0h-108v277h-84v87h84v127h256q76 0 124.5 -34.5t61.5 -92.5h75v-87h-76q-14 -57 -64.5 -90t-125.5 -33h-143v-154zM336 404h-127v-166h127q48 0 75.5 22t27.5 61t-27.5 61t-75.5 22z" />
    <glyph glyph-name="endash.cap" horiz-adv-x="751" 
d="M653 323h-555v97h555v-97z" />
    <glyph glyph-name="emdash.cap" horiz-adv-x="912" 
d="M814 323h-716v97h716v-97z" />
    <glyph glyph-name="hyphen.cap" horiz-adv-x="491" 
d="M393 323h-295v97h295v-97z" />
    <glyph glyph-name="bracketleft.cap" horiz-adv-x="409" 
d="M371 -126h-284v912h284v-85h-186v-742h186v-85z" />
    <glyph glyph-name="bracketright.cap" horiz-adv-x="409" 
d="M38 786h284v-912h-284v85h186v742h-186v85z" />
    <glyph glyph-name="braceleft.cap" horiz-adv-x="389" 
d="M52 288v84q35 3 51 22q17 19 21.5 40t4.5 64v135q0 71 41 112t112 41h69v-85h-47q-36 0 -56 -21t-20 -57v-155q0 -112 -75 -138q75 -26 75 -138v-155q0 -36 20 -57t56 -21h47v-85h-69q-71 0 -112 41t-41 112v135q0 41 -4 61q-4 25 -22.5 43.5t-50.5 21.5z" />
    <glyph glyph-name="braceright.cap" horiz-adv-x="389" 
d="M337 372v-84q-33 -3 -52 -23q-16 -18 -20.5 -39t-4.5 -64v-135q0 -71 -41 -112t-112 -41h-69v85h47q36 0 56 21t20 57v155q0 112 75 138q-75 26 -75 138v155q0 36 -20 57t-56 21h-47v85h69q71 0 112 -41t41 -112v-135q0 -42 4 -62q4 -24 23 -42.5t50 -21.5z" />
    <glyph glyph-name="guillemotright.cap" horiz-adv-x="563" 
d="M528 377v-55l-144 -180h-110l163 208l-163 208h110zM289 377v-55l-144 -180h-110l162 208l-162 208h110z" />
    <glyph glyph-name="guillemotleft.cap" horiz-adv-x="563" 
d="M289 142h-110l-144 180v55l144 181h110l-163 -208zM528 142h-110l-144 180v55l144 181h110l-162 -208z" />
    <glyph glyph-name="guilsinglright.cap" horiz-adv-x="323" 
d="M144 142h-109l161 208l-161 208h109l144 -181v-55z" />
    <glyph glyph-name="guilsinglleft.cap" horiz-adv-x="324" 
d="M289 142h-110l-144 180v55l144 181h110l-163 -208z" />
    <glyph glyph-name="parenleft.cap" horiz-adv-x="375" 
d="M340 -126h-111q-147 184 -147 456t147 456h111q-158 -203 -158 -456q0 -256 158 -456z" />
    <glyph glyph-name="parenright.cap" horiz-adv-x="375" 
d="M146 -126h-111q158 200 158 456q0 253 -158 456h111q147 -184 147 -456t-147 -456z" />
    <glyph glyph-name="exclamdown.cap" horiz-adv-x="310" 
d="M104 687q21 21 50 21t49 -21q21 -20 21 -49t-21 -50q-20 -21 -49 -21t-50 21q-20 21 -20 50t20 49zM226 0h-142l22 475h97z" />
    <glyph glyph-name="questiondown.cap" horiz-adv-x="484" 
d="M268 709q30 0 50 -20.5t20 -50.5q0 -29 -20 -49.5t-50 -20.5q-29 0 -49.5 20.5t-20.5 49.5q0 30 20.5 50.5t49.5 20.5zM219 476h104v-145q-69 -13 -123 -52q-52 -37 -52 -88q0 -48 36 -75.5t97 -27.5q88 0 175 57v-95q-80 -59 -193 -59q-95 0 -160 52q-66 53 -66 141
q0 73 53 124q53 52 129 76v92z" />
    <glyph glyph-name="f_t" horiz-adv-x="758" 
d="M223 399v-399h-108v399h-92v92h92v64q0 71 40 113t114 42q64 0 115 -21v-91q-47 18 -85 18q-76 0 -76 -80v-45h227v143h108v-143h155v-92h-155v-234q0 -41 19 -60t58 -19t74 18v-93q-35 -24 -109 -24q-70 0 -110 38t-40 109v265h-227z" />
    <glyph glyph-name="uni20B6.mono" 
d="M108 293h-104v78h104v329h291q109 0 171 -57q63 -55 63 -146q0 -93 -63 -148q-62 -56 -171 -56h-181v-83h273v-78h-273v-132h-110v132h-104v78h104v83zM218 601v-230h171q63 0 98.5 30.5t35.5 84.5q0 55 -35.5 85t-98.5 30h-171z" />
    <glyph glyph-name="liralow.mono" 
d="M240 93h289v-93h-441v93h26q45 0 45 61h-71v60h71v54h-71v60h71q4 84 60.5 130t154.5 46q82 0 144 -32v-95q-69 34 -135 34q-56 0 -87 -22t-32 -61h201v-60h-201v-54h201v-60h-201q0 -44 -24 -61z" />
    <glyph glyph-name="H_B" horiz-adv-x="1196" 
d="M197 0h-110v700h110v-276h365v276h318q95 0 150.5 -46t55.5 -126q0 -52 -26 -90t-67 -54q66 -12 107.5 -62t41.5 -125q0 -89 -64 -143q-63 -54 -172 -54h-344v323h-365v-323zM672 321v-220h214q64 0 100.5 29.5t36.5 82.5q0 52 -36 80t-101 28h-214zM672 599v-181h189
q55 0 85.5 23.5t30.5 67.5t-30.5 67t-85.5 23h-189z" />
    <glyph glyph-name="H_D" horiz-adv-x="1253" 
d="M197 0h-110v700h110v-276h365v276h247q168 0 275 -98t107 -252q0 -155 -107 -253q-106 -97 -275 -97h-247v323h-365v-323zM672 599v-498h127q132 0 205 67q74 68 74 182t-74 182q-73 67 -205 67h-127z" />
    <glyph glyph-name="H_E" horiz-adv-x="1116" 
d="M197 0h-110v700h110v-276h365v276h498v-101h-388v-175h316v-101h-316v-222h401v-101h-511v323h-365v-323z" />
    <glyph glyph-name="H_F" horiz-adv-x="1100" 
d="M197 0h-110v700h110v-276h365v276h497v-101h-387v-183h307v-101h-307v-315h-110v323h-365v-323z" />
    <glyph glyph-name="H_K" horiz-adv-x="1157" 
d="M672 0h-110v323h-365v-323h-110v700h110v-276h365v276h110v-286l287 286h141l-324 -320l376 -380h-150l-330 336v-336z" />
    <glyph glyph-name="H_M" horiz-adv-x="1323" 
d="M197 0h-110v700h110v-276h365v276h112l227 -315l225 315h110v-700h-110v532l-195 -264h-64l-195 264v-532h-110v323h-365v-323z" />
    <glyph glyph-name="H_N" horiz-adv-x="1250" 
d="M197 0h-110v700h110v-276h365v276h98l395 -507v507h108v-700h-93l-398 509v-509h-110v323h-365v-323z" />
    <glyph glyph-name="H_U" horiz-adv-x="1226" 
d="M562 296v27h-365v-323h-110v700h110v-276h365v276h110v-408q0 -97 49 -149.5t134 -52.5t134.5 52.5t49.5 149.5v408h110v-404q0 -147 -82 -228q-83 -81 -212 -81t-212 80q-81 81 -81 229z" />
    <glyph glyph-name="H_P" horiz-adv-x="1137" 
d="M672 0h-110v323h-365v-323h-110v700h110v-276h365v276h301q109 0 171 -57q63 -55 63 -146t-63 -150q-61 -58 -171 -58h-191v-289zM672 599v-209h182q62 0 97 27.5t35 77.5t-34.5 77t-97.5 27h-182z" />
    <glyph glyph-name="H_R" horiz-adv-x="1208" 
d="M672 0h-110v323h-365v-323h-110v700h110v-276h365v276h319q108 0 169 -55q62 -56 62 -144q0 -73 -40.5 -124.5t-111.5 -68.5l220 -308h-133l-211 296h-164v-296zM672 599v-206h202q60 0 93.5 27t33.5 77q0 48 -33.5 75t-93.5 27h-202z" />
    <glyph glyph-name="N_D" horiz-adv-x="1269" 
d="M195 0h-108v700h96l395 -507v507h247q168 0 275 -98t107 -252q0 -155 -107 -253q-106 -97 -275 -97h-232l-398 509v-509zM815 599h-129v-498h129q132 0 205 67q74 68 74 182t-74 182q-73 67 -205 67z" />
    <glyph glyph-name="N_B" horiz-adv-x="1212" 
d="M195 0h-108v700h96l395 -507v507h318q95 0 150.5 -46t55.5 -126q0 -52 -26 -90t-67 -54q66 -12 107.5 -62t41.5 -125q0 -89 -64 -143q-63 -54 -172 -54h-329l-398 509v-509zM902 321h-216v-220h216q64 0 100.5 29.5t36.5 82.5q0 52 -36 80t-101 28zM877 599h-191v-181
h191q55 0 85.5 23.5t30.5 67.5t-30.5 67t-85.5 23z" />
    <glyph glyph-name="M_P" horiz-adv-x="1225" 
d="M197 0h-110v700h112l227 -315l225 315h300q109 0 171 -57q63 -55 63 -146t-63 -150q-61 -58 -171 -58h-190v-289h-110v532l-195 -264h-64l-195 264v-532zM942 599h-181v-209h181q62 0 97 27.5t35 77.5t-34.5 77t-97.5 27z" />
    <glyph glyph-name="M_R" horiz-adv-x="1296" 
d="M197 0h-110v700h112l227 -315l225 315h318q108 0 169 -55q62 -56 62 -144q0 -73 -40.5 -124.5t-111.5 -68.5l220 -308h-133l-211 296h-163v-296h-110v532l-195 -264h-64l-195 264v-532zM962 599h-201v-206h201q60 0 93.5 27t33.5 77q0 48 -33.5 75t-93.5 27z" />
    <glyph glyph-name="M_H" horiz-adv-x="1322" 
d="M197 0h-110v700h112l227 -315l225 315h110v-276h364v276h110v-700h-110v323h-364v-323h-110v532l-195 -264h-64l-195 264v-532z" />
    <glyph glyph-name="M_U" horiz-adv-x="1314" 
d="M197 0h-110v700h112l227 -315l225 315h109v-408q0 -97 49 -149.5t134 -52.5t134.5 52.5t49.5 149.5v408h110v-404q0 -147 -82 -228q-83 -81 -212 -81t-212 80q-81 81 -81 229v234l-194 -262h-64l-195 264v-532z" />
    <glyph glyph-name="N_P" horiz-adv-x="1153" 
d="M195 0h-108v700h96l395 -507v507h301q109 0 171 -57q63 -55 63 -146t-63 -150q-61 -58 -171 -58h-191v-289h-95l-398 509v-509zM688 599v-209h182q62 0 97 27.5t35 77.5t-34.5 77t-97.5 27h-182z" />
    <glyph glyph-name="N_R" horiz-adv-x="1224" 
d="M195 0h-108v700h96l395 -507v507h319q108 0 169 -55q62 -56 62 -144q0 -73 -40.5 -124.5t-111.5 -68.5l220 -308h-133l-211 296h-164v-296h-95l-398 509v-509zM688 599v-206h202q60 0 93.5 27t33.5 77q0 48 -33.5 75t-93.5 27h-202z" />
    <glyph glyph-name="N_N" horiz-adv-x="1264" 
d="M195 0h-108v700h96l395 -507v507h96l395 -507v507h108v-700h-93l-398 509v-509h-93l-398 509v-509z" />
    <glyph glyph-name="U_P" horiz-adv-x="1130" 
d="M371 -13q-129 0 -212 80q-81 81 -81 229v404h110v-408q0 -97 49 -149.5t134 -52.5t134.5 52.5t49.5 149.5v408h301q110 0 171 -57q63 -55 63 -146t-63 -150q-61 -58 -171 -58h-191q-1 -143 -84 -223q-82 -79 -210 -79zM665 599v-209h182q62 0 97 27.5t35 77.5t-34.5 77
t-97.5 27h-182z" />
    <glyph glyph-name="U_R" horiz-adv-x="1201" 
d="M829 296h-164q0 -147 -82 -228q-83 -81 -212 -81t-212 80q-81 81 -81 229v404h110v-408q0 -97 49 -149.5t134 -52.5t134.5 52.5t49.5 149.5v408h319q108 0 169 -55q62 -56 62 -144q0 -73 -40.5 -124.5t-111.5 -68.5l220 -308h-133zM665 599v-206h202q60 0 93.5 27
t33.5 77q0 48 -33.5 75t-93.5 27h-202z" />
    <glyph glyph-name="U_F" horiz-adv-x="1093" 
d="M78 296v404h110v-408q0 -97 49 -149.5t134 -52.5t134.5 52.5t49.5 149.5v408h497v-101h-387v-183h307v-101h-307v-19q0 -147 -82 -228q-83 -81 -212 -81t-212 80q-81 81 -81 229z" />
    <glyph glyph-name="U_H" horiz-adv-x="1227" 
d="M78 296v404h110v-408q0 -97 49 -149.5t134 -52.5t134.5 52.5t49.5 149.5v408h110v-276h365v276h110v-700h-110v323h-365v-27q0 -147 -82 -228q-83 -81 -212 -81t-212 80q-81 81 -81 229z" />
    <glyph glyph-name="U_K" horiz-adv-x="1149" 
d="M78 296v404h110v-408q0 -97 49 -149.5t134 -52.5t134.5 52.5t49.5 149.5v408h110v-286l288 286h140l-325 -320l376 -380h-148l-331 336v-40q0 -147 -82 -228q-83 -81 -212 -81t-212 80q-81 81 -81 229z" />
    <glyph glyph-name="U_M" horiz-adv-x="1315" 
d="M78 296v404h110v-408q0 -97 49 -149.5t134 -52.5t134.5 52.5t49.5 149.5v392l-1 16h112l227 -315l225 315h110v-700h-110v532l-195 -264h-64l-194 262v-234q0 -147 -82 -228q-83 -81 -212 -81t-212 80q-81 81 -81 229z" />
    <glyph glyph-name="M_B" horiz-adv-x="1285" 
d="M995 0h-344v532l-195 -264h-64l-195 264v-532h-110v700h112l227 -315l225 315h318q95 0 150.5 -46t55.5 -126q0 -52 -26 -90t-67 -54q66 -12 107.5 -62t41.5 -125q0 -89 -64 -143q-63 -54 -172 -54zM761 321v-220h214q64 0 100.5 29.5t36.5 82.5q0 52 -36 80t-101 28
h-214zM761 599v-181h189q55 0 85.5 23.5t30.5 67.5t-30.5 67t-85.5 23h-189z" />
    <glyph glyph-name="U_N" horiz-adv-x="1243" 
d="M78 296v404h110v-408q0 -97 49 -149.5t134 -52.5t134.5 52.5t49.5 149.5v408h98l395 -507v507h108v-700h-93l-398 509v-213q0 -147 -82 -228q-83 -81 -212 -81t-212 80q-81 81 -81 229z" />
    <glyph glyph-name="M_E" horiz-adv-x="1205" 
d="M1162 0h-511v532l-195 -264h-64l-195 264v-532h-110v700h112l227 -315l225 315h498v-101h-388v-175h316v-101h-316v-222h401v-101z" />
    <glyph glyph-name="U_T" horiz-adv-x="930" 
d="M324 599v101h573v-101h-232v-303q0 -147 -82 -228q-83 -81 -212 -81t-212 80q-81 81 -81 229v404h110v-408q0 -97 49 -149.5t134 -52.5t134.5 52.5t49.5 149.5v307h-231z" />
    <glyph glyph-name="T_U" horiz-adv-x="928" 
d="M33 599v101h573v-101h-232v-307q0 -97 49 -149.5t134 -52.5t134.5 52.5t49.5 149.5v408h110v-404q0 -147 -82 -228q-83 -81 -212 -81t-212 80q-81 81 -81 229v303h-231z" />
    <glyph glyph-name="N_T" horiz-adv-x="1292" 
d="M578 193v507h681v-101h-232v-599h-110v599h-231v-599h-93l-398 509v-509h-108v700h96z" />
    <glyph glyph-name="T_H" horiz-adv-x="1278" 
d="M716 0h-110v599h-232v-599h-110v599h-231v101h683v-276h365v276h110v-700h-110v323h-365v-323z" />
    <glyph glyph-name="H_T" horiz-adv-x="1278" 
d="M904 599h-232v-599h-110v323h-365v-323h-110v700h110v-276h365v276h683v-101h-231v-599h-110v599z" />
    <glyph glyph-name="A_V" horiz-adv-x="1072" 
d="M139 0h-117l306 704h106l251 -579l242 575h119l-298 -700h-126l-76 174h-332zM380 565l-128 -294h256z" />
    <glyph glyph-name="D_C" horiz-adv-x="1225" 
d="M972 -13q-101 0 -184 43.5t-131 121.5q-49 -72 -133.5 -112t-189.5 -40h-247v700h247q105 0 189.5 -40.5t133.5 -112.5q49 78 131.5 122t183.5 44q107 0 190 -47v-111q-85 55 -189 55q-110 0 -184 -74q-73 -73 -73 -186t74 -187q74 -73 187 -73q120 0 200 64v-111
q-88 -56 -205 -56zM197 599v-498h127q132 0 205 67q74 68 74 182t-74 182q-73 67 -205 67h-127z" />
    <glyph glyph-name="D_O" horiz-adv-x="1380" 
d="M334 0h-247v700h247q105 0 189.5 -40.5t133.5 -112.5q48 78 127.5 122t175.5 44q154 0 256 -105q102 -104 102 -258t-102 -259q-102 -104 -256 -104q-96 0 -175.5 43.5t-127.5 121.5q-49 -72 -133.5 -112t-189.5 -40zM786 164q71 -74 174 -74t174 74q71 76 71 186
q0 111 -71 185q-70 75 -174 75t-174 -75q-70 -73 -70 -185t70 -186zM197 599v-498h127q132 0 205 67q74 68 74 182t-74 182q-73 67 -205 67h-127z" />
    <glyph glyph-name="D_Q" horiz-adv-x="1380" 
d="M960 -13q-96 0 -175.5 43.5t-127.5 121.5q-49 -72 -133.5 -112t-189.5 -40h-247v700h247q105 0 189.5 -40.5t133.5 -112.5q48 78 127.5 122t175.5 44q154 0 256 -105q102 -104 102 -258q0 -116 -61 -207q-59 -90 -161 -131l15 -14q44 -43 97 -43q49 0 83 22v-101
q-43 -22 -100 -22q-54 0 -101 28.5t-106 90.5l-14 15h-4q-4 -1 -6 -1zM786 164q71 -74 174 -74t174 74q71 76 71 186q0 111 -71 185q-70 75 -174 75t-174 -75q-70 -73 -70 -185t70 -186zM197 599v-498h127q132 0 205 67q74 68 74 182t-74 182q-73 67 -205 67h-127z" />
    <glyph glyph-name="D_G" horiz-adv-x="1315" 
d="M967 -13q-99 0 -180.5 43.5t-129.5 121.5q-49 -72 -133.5 -112t-189.5 -40h-247v700h247q105 0 189.5 -40.5t133.5 -112.5q49 78 131 122t183 44q127 0 216 -60v-109q-96 66 -209 66q-115 0 -188 -73q-74 -74 -74 -188q0 -116 72 -188q74 -71 179 -71q107 0 169 59v255
h110v-300q-44 -52 -118.5 -84.5t-160.5 -32.5zM197 599v-498h127q132 0 205 67q74 68 74 182t-74 182q-73 67 -205 67h-127z" />
    <glyph glyph-name="H_Y" horiz-adv-x="959" 
d="M197 0h-110v700h110v-300h306l-212 300h128l200 -283l200 283h124l-271 -380v-320h-110v299h-365v-299z" />
    <glyph glyph-name="L_A" horiz-adv-x="1193" 
d="M570 0h-483v700h111v-599h299l262 603h106l306 -704h-118l-76 174h-332zM811 565l-128 -294h256z" />
    <glyph glyph-name="M_D" horiz-adv-x="1342" 
d="M898 0h-247v532l-195 -264h-64l-195 264v-532h-110v700h112l227 -315l225 315h247q168 0 275 -98t107 -252q0 -155 -107 -253q-106 -97 -275 -97zM761 599v-498h127q132 0 205 67q74 68 74 182t-74 182q-73 67 -205 67h-127z" />
    <glyph glyph-name="M_F" horiz-adv-x="1189" 
d="M197 0h-110v700h112l227 -315l225 315h497v-101h-387v-183h307v-101h-307v-315h-110v532l-195 -264h-64l-195 264v-532z" />
    <glyph glyph-name="M_N" horiz-adv-x="1339" 
d="M761 0h-110v532l-195 -264h-64l-195 264v-532h-110v700h112l227 -315l225 315h98l395 -507v507h108v-700h-93l-398 509v-509z" />
    <glyph glyph-name="N_E" horiz-adv-x="1132" 
d="M1089 0h-496l-398 509v-509h-108v700h96l395 -507v507h498v-101h-388v-175h316v-101h-316v-222h401v-101z" />
    <glyph glyph-name="N_F" horiz-adv-x="1116" 
d="M195 0h-108v700h96l395 -507v507h497v-101h-387v-183h307v-101h-307v-315h-95l-398 509v-509z" />
    <glyph glyph-name="N_M" horiz-adv-x="1339" 
d="M195 0h-108v700h96l395 -507v507h112l227 -315l225 315h110v-700h-110v532l-195 -264h-64l-195 264v-532h-95l-398 509v-509z" />
    <glyph glyph-name="O_Q" horiz-adv-x="1441" 
d="M419 -13q-154 0 -256 104q-101 106 -101 259q0 154 101 258q102 105 256 105q95 0 174 -43t127 -119q49 76 127.5 119t173.5 43q154 0 256 -105q102 -104 102 -258q0 -116 -61 -207q-59 -90 -161 -131l15 -14q44 -43 97 -43q49 0 83 22v-101q-43 -22 -100 -22
q-54 0 -101 28.5t-106 90.5l-14 15q-1 0 -5 -0.5t-5 -0.5q-96 0 -174.5 43t-126.5 119q-48 -76 -127 -119t-174 -43zM245 164q71 -74 174 -74t174 74q71 76 71 186q0 111 -71 185q-71 75 -174 75t-174 -75q-70 -73 -70 -185t70 -186zM847 164q71 -74 174 -74t174 74
q71 76 71 186q0 111 -71 185q-71 75 -174 75t-174 -75q-70 -73 -70 -185t70 -186z" />
    <glyph glyph-name="O_G" horiz-adv-x="1376" 
d="M1028 -13q-97 0 -178.5 43t-129.5 119q-48 -76 -127 -119t-174 -43q-154 0 -256 104q-101 106 -101 259q0 154 101 258q102 105 256 105q95 0 174 -43t127 -119q49 76 131 119t181 43q128 0 216 -60v-109q-96 66 -209 66q-115 0 -188 -73q-74 -74 -74 -188
q0 -116 72 -188q74 -71 179 -71q107 0 169 59v255h110v-300q-44 -52 -118.5 -84.5t-160.5 -32.5zM245 164q71 -74 174 -74t174 74q71 76 71 186q0 111 -71 185q-71 75 -174 75t-174 -75q-70 -73 -70 -185t70 -186z" />
    <glyph glyph-name="T_Z" horiz-adv-x="1187" 
d="M1146 0h-560v78l394 521h-606v-599h-110v599h-231v101h1097v-77l-393 -522h409v-101z" />
    <glyph glyph-name="V_A" horiz-adv-x="1055" 
d="M432 0h-106l-300 700h122l231 -551l242 555h106l306 -704h-118l-76 174h-332zM673 565l-128 -294h256z" />
    <glyph glyph-name="Y_H" horiz-adv-x="959" 
d="M397 0h-110v317l-271 383h128l200 -283l200 283h124l-214 -300h308v300h110v-700h-110v299h-365v-299z" />
    <glyph glyph-name="H_L" horiz-adv-x="1075" 
d="M1045 0h-483v323h-365v-323h-110v700h110v-276h365v276h111v-599h372v-101z" />
    <glyph glyph-name="N_K" horiz-adv-x="1173" 
d="M195 0h-108v700h96l395 -507v507h110v-286l287 286h141l-324 -320l376 -380h-150l-330 336v-336h-95l-398 509v-509z" />
    <glyph glyph-name="N_L" horiz-adv-x="1091" 
d="M195 0h-108v700h96l395 -507v507h111v-599h372v-101h-468l-398 509v-509z" />
    <glyph glyph-name="M_L" horiz-adv-x="1164" 
d="M197 0h-110v700h112l227 -315l225 315h111v-599h372v-101h-483v532l-195 -264h-64l-195 264v-532z" />
    <glyph glyph-name="A_v" horiz-adv-x="968" 
d="M139 0h-117l306 704h106l247 -568l151 355h115l-218 -491h-107l-76 174h-332zM380 565l-128 -294h256z" />
    <glyph glyph-name="A_y" horiz-adv-x="959" 
d="M139 0h-117l306 704h106l242 -559l144 346h117l-235 -544q-66 -152 -187 -152q-61 0 -89 16v95q32 -16 71 -16t67 27.5t55 88.5l-73 168h-332zM380 565l-128 -294h256z" />
    <glyph glyph-name="H_k" horiz-adv-x="1056" 
d="M672 0h-110v323h-365v-323h-110v700h110v-276h365v276h110v-393l192 184h138l-233 -220l268 -271h-148l-217 220v-220z" />
    <glyph glyph-name="H_m" horiz-adv-x="1409" 
d="M672 0h-110v323h-365v-323h-110v700h110v-276h365v276h110v-273q56 77 162 77q57 0 98 -24t57 -64q27 40 74.5 64t104.5 24q82 0 128 -51t46 -146v-307h-108v282q0 121 -100 121q-39 0 -74.5 -23.5t-51.5 -58.5v-321h-108v282q0 121 -101 121q-38 0 -73.5 -22.5
t-53.5 -56.5v-324z" />
    </font>
</defs>
</svg>
